<?xml version="1.0" standalone="no"?>
<!DOCTYPE svg PUBLIC "-//W3C//DTD SVG 1.1//EN" "http://www.w3.org/Graphics/SVG/1.1/DTD/svg11.dtd" >
<svg xmlns="http://www.w3.org/2000/svg" xmlns:xlink="http://www.w3.org/1999/xlink" version="1.1">
<metadata>
Created by FontForge 20170731 at Thu Dec  8 15:23:23 2022
 By Aleksey,,,
(c) 2011 Klim Type Foundry. All rights reserved.
</metadata>
<defs>
<font id="Calibre-Thin" horiz-adv-x="1024" >
  <font-face 
    font-family="Calibre Thin"
    font-weight="250"
    font-stretch="normal"
    units-per-em="2048"
    panose-1="2 11 4 3 3 2 2 6 2 3"
    ascent="1536"
    descent="-512"
    x-height="909"
    cap-height="1257"
    bbox="-246 -369 1726 1829"
    underline-thickness="61"
    underline-position="-204"
    unicode-range="U+0020-FB02"
  />
<missing-glyph horiz-adv-x="1245" 
 />
    <glyph glyph-name="f_f" unicode="ff" horiz-adv-x="927" 
d="M967 1333v-61q-40 18 -90 18q-79 0 -129 -57t-50 -160v-164h220v-57h-220v-852h-61v852h-383v-852h-61v852h-144v57h144v160q0 117 67.5 191.5t171.5 74.5q49 0 90 -14v-61q-40 18 -90 18q-79 0 -128.5 -57t-49.5 -160v-152h383v172q0 117 68 192t172 75q47 0 90 -15z
" />
    <glyph glyph-name=".notdef" horiz-adv-x="1245" 
 />
    <glyph glyph-name=".null" horiz-adv-x="0" 
 />
    <glyph glyph-name="nonmarkingreturn" horiz-adv-x="682" 
 />
    <glyph glyph-name="space" unicode=" " horiz-adv-x="452" 
 />
    <glyph glyph-name="exclam" unicode="!" horiz-adv-x="425" 
d="M160 51q0 23 15.5 39t37.5 16t37.5 -16t15.5 -39t-15.5 -39t-37.5 -16t-37.5 16t-15.5 39zM188 393l-8 864h66l-8 -864h-50z" />
    <glyph glyph-name="quotedbl" unicode="&#x22;" horiz-adv-x="387" 
d="M82 889v368h61v-368h-61zM244 889v368h61v-368h-61z" />
    <glyph glyph-name="numbersign" unicode="#" horiz-adv-x="1083" 
d="M942 467l-10 -53h-213l-98 -414h-58l99 414h-345l-98 -414h-55l98 414h-201l13 53h200l76 324h-209l11 53h210l101 413h57l-100 -413h344l100 413h56l-99 -413h201l-12 -53h-201l-78 -324h211zM408 791l-78 -324h344l78 324h-344z" />
    <glyph glyph-name="dollar" unicode="$" horiz-adv-x="927" 
d="M436 -168v201q-138 8 -240 76t-139 186h68q41 -100 129 -152.5t211 -52.5q140 0 231.5 67.5t91.5 186.5q0 87 -49 144.5t-164 91.5l-225 65q-131 38 -197.5 102.5t-66.5 176.5q0 138 101 218t249 83v182h58v-184q136 -12 224.5 -84.5t121.5 -188.5h-64q-80 217 -332 217
q-128 0 -213.5 -64t-85.5 -179q0 -51 16.5 -88t52 -63t76.5 -43t105 -36l189 -55q142 -42 204 -113t62 -182q0 -138 -101 -220.5t-255 -90.5v-201h-58z" />
    <glyph glyph-name="percent" unicode="%" horiz-adv-x="1239" 
d="M170 0l838 1257h61l-838 -1257h-61zM139 1022q0 -80 56.5 -136.5t136.5 -56.5q81 0 137.5 56.5t56.5 136.5q0 82 -56 138.5t-138 56.5q-80 0 -136.5 -57t-56.5 -138zM1157 236q0 -104 -73 -178t-177 -74t-178 74t-74 178t73.5 176.5t178.5 72.5q104 0 177 -72.5
t73 -176.5zM584 1022q0 -104 -74 -177t-178 -73t-177 73t-73 177t73 178t177 74t178 -74t74 -178zM1100 236q0 79 -56.5 135.5t-136.5 56.5q-81 0 -137.5 -56t-56.5 -136q0 -82 56 -138.5t138 -56.5q80 0 136.5 57t56.5 138z" />
    <glyph glyph-name="ampersand" unicode="&#x26;" horiz-adv-x="1116" 
d="M852 969h-61q-13 117 -83 182.5t-180 65.5q-111 0 -180 -65t-69 -181q0 -41 10.5 -76.5t39 -75t47 -61t66.5 -72.5l410 -436q100 151 106 364h62q-6 -230 -127 -405l197 -209h-80l-154 162q-154 -178 -393 -178q-166 0 -276.5 108.5t-110.5 269.5q0 122 71 219.5
t185 137.5q-59 64 -88 121.5t-29 130.5q0 136 89 219.5t224 83.5q142 0 224 -83.5t100 -221.5zM385 662l-14 12q-100 -30 -166 -117.5t-66 -194.5q0 -136 93 -227.5t231 -91.5q217 0 354 160z" />
    <glyph glyph-name="quotesingle" unicode="'" horiz-adv-x="225" 
d="M82 889v368h61v-368h-61z" />
    <glyph glyph-name="parenleft" unicode="(" horiz-adv-x="671" 
d="M61 580q0 281 148 483t401 268v-57q-98 -24 -185 -83t-155 -146t-107.5 -208t-39.5 -257t39.5 -257t107.5 -208.5t155 -146.5t185 -83v-57q-252 66 -400.5 268.5t-148.5 483.5z" />
    <glyph glyph-name="parenright" unicode=")" horiz-adv-x="671" 
d="M610 580q0 -281 -148.5 -483.5t-400.5 -268.5v57q98 24 185.5 83t155 146.5t107.5 208.5t40 257t-40 257t-107.5 208t-155 146t-185.5 83v57q253 -66 401 -268t148 -483z" />
    <glyph glyph-name="asterisk" unicode="*" horiz-adv-x="618" 
d="M262 1061l-196 113l24 40l195 -112v225h49v-225l194 112l25 -40l-197 -113l197 -113l-25 -41l-194 113v-225h-49v225l-195 -113l-24 41z" />
    <glyph glyph-name="plus" unicode="+" horiz-adv-x="1013" 
d="M477 963h60v-334h333v-60h-333v-333h-60v333h-334v60h334v334z" />
    <glyph glyph-name="comma" unicode="," horiz-adv-x="241" 
d="M14 -199l97 199q-19 3 -31 16t-12 35q0 23 15 39t38 16t38 -16t15 -39q0 -25 -18 -61l-93 -189h-49z" />
    <glyph glyph-name="hyphen" unicode="-" horiz-adv-x="657" 
d="M82 500v59h493v-59h-493z" />
    <glyph glyph-name="period" unicode="." horiz-adv-x="241" 
d="M68 51q0 23 15.5 39t37.5 16t37.5 -16t15.5 -39t-15.5 -39t-37.5 -16t-37.5 16t-15.5 39z" />
    <glyph glyph-name="slash" unicode="/" horiz-adv-x="587" 
d="M10 -172l508 1503h60l-508 -1503h-60z" />
    <glyph glyph-name="zero" unicode="0" horiz-adv-x="1093" 
d="M547 -16q-205 0 -331 178.5t-126 466.5t126 466.5t331 178.5t331 -178.5t126 -466.5t-126 -466.5t-331 -178.5zM547 1214q-178 0 -285.5 -162t-107.5 -423t108 -423.5t285 -162.5t285 162.5t108 423.5t-107.5 423t-285.5 162z" />
    <glyph glyph-name="one" unicode="1" horiz-adv-x="675" 
d="M479 1262v-1262h-63v1184l-342 -176v67l364 187h41z" />
    <glyph glyph-name="two" unicode="2" horiz-adv-x="888" 
d="M745 936q0 129 -79.5 203.5t-210.5 74.5q-148 0 -233 -90.5t-101 -244.5h-64q18 179 123 287t275 108q160 0 256 -93.5t96 -244.5q0 -31 -6.5 -62t-14 -55.5t-27 -57t-30.5 -50.5t-40.5 -53.5t-40.5 -49t-47 -53.5t-46 -51l-416 -443h701v-61h-791v45l471 510
q51 55 75.5 82.5t59.5 72t50.5 75t27.5 70.5t12 81z" />
    <glyph glyph-name="three" unicode="3" horiz-adv-x="923" 
d="M369 618v60h102q122 0 203.5 72.5t81.5 193.5q0 120 -83.5 195t-215.5 75q-119 0 -204.5 -71.5t-113.5 -196.5h-63q26 149 129.5 238.5t251.5 89.5q167 0 265.5 -91.5t98.5 -238.5q0 -116 -74 -198.5t-180 -96.5q116 -11 198.5 -93.5t82.5 -217.5q0 -150 -103.5 -252
t-279.5 -102q-167 0 -274 90.5t-132 249.5h66q28 -135 116.5 -208t223.5 -73q144 0 230.5 80.5t86.5 214.5q0 129 -90.5 204.5t-220.5 75.5h-102z" />
    <glyph glyph-name="four" unicode="4" horiz-adv-x="1011" 
d="M612 1257l-495 -870h524v318h61v-318h248v-61h-248v-326h-61v326h-600v55l502 876h69z" />
    <glyph glyph-name="five" unicode="5" horiz-adv-x="927" 
d="M461 727q-156 0 -256 -127h-62v657h652v-61h-590v-514q43 44 109.5 74t146.5 30q167 0 280 -118t113 -285q0 -165 -113 -282t-280 -117t-274.5 88t-141.5 254h66q34 -140 122.5 -211.5t227.5 -71.5q140 0 233.5 99t93.5 241q0 143 -94 243.5t-233 100.5z" />
    <glyph glyph-name="six" unicode="6" horiz-adv-x="1005" 
d="M188 401q0 -152 97 -255t243 -103q143 0 241.5 102.5t98.5 255.5q0 152 -98.5 254.5t-241.5 102.5q-145 0 -242.5 -102.5t-97.5 -254.5zM901 979h-63q-78 235 -303 235q-165 0 -275 -159t-110 -439q0 -54 6 -116q26 139 132 228t240 89q168 0 286 -120t118 -296
t-118 -296.5t-286 -120.5q-252 0 -366 237q-72 153 -72 395q0 158 35.5 285t97 207.5t141.5 123t171 42.5q147 0 238.5 -79.5t127.5 -215.5z" />
    <glyph glyph-name="seven" unicode="7" horiz-adv-x="862" 
d="M821 1202l-475 -1202h-65l475 1196h-719v61h784v-55z" />
    <glyph glyph-name="eight" unicode="8" horiz-adv-x="976" 
d="M487 41q156 0 257.5 88t101.5 215t-101.5 215t-257.5 88t-256 -88t-100 -215t100 -215t256 -88zM487 705q134 0 217.5 75t83.5 181t-83.5 181t-217.5 75q-133 0 -217 -75t-84 -181t84 -181t217 -75zM487 -16q-182 0 -299.5 103.5t-117.5 256.5q0 116 73 207.5t197 126.5
q-99 33 -157 110.5t-58 172.5q0 131 101.5 222t260.5 91q161 0 262 -91t101 -222q0 -95 -58 -172.5t-157 -110.5q124 -35 198 -126.5t74 -207.5q0 -152 -118.5 -256t-301.5 -104z" />
    <glyph glyph-name="nine" unicode="9" horiz-adv-x="1005" 
d="M817 856q0 152 -97 255t-243 103q-143 0 -241.5 -102.5t-98.5 -255.5q0 -152 98.5 -254t241.5 -102q145 0 242.5 102t97.5 254zM104 279h64q37 -111 108.5 -173.5t194.5 -62.5q165 0 275 159t110 439q0 55 -6 117q-26 -139 -132.5 -228.5t-240.5 -89.5q-168 0 -285.5 120
t-117.5 296t117.5 297t285.5 121q252 0 367 -238q71 -151 71 -395q0 -158 -35.5 -285t-97 -207t-141 -122.5t-170.5 -42.5q-147 0 -239 79.5t-128 215.5z" />
    <glyph glyph-name="colon" unicode=":" horiz-adv-x="241" 
d="M68 51q0 23 15.5 39t37.5 16t37.5 -16t15.5 -39t-15.5 -39t-37.5 -16t-37.5 16t-15.5 39zM68 748q0 23 15.5 39t37.5 16t37.5 -16t15.5 -39t-15.5 -39.5t-37.5 -16.5t-37.5 16.5t-15.5 39.5z" />
    <glyph glyph-name="semicolon" unicode=";" horiz-adv-x="241" 
d="M14 -199l97 199q-19 3 -31 16t-12 35q0 23 15 39t38 16t38 -16t15 -39q0 -25 -18 -61l-93 -189h-49zM68 748q0 23 15.5 39t37.5 16t37.5 -16t15.5 -39t-15.5 -39.5t-37.5 -16.5t-37.5 16.5t-15.5 39.5z" />
    <glyph glyph-name="less" unicode="&#x3c;" horiz-adv-x="776" 
d="M113 571v50l530 305v-66l-467 -264l467 -264v-66z" />
    <glyph glyph-name="equal" unicode="=" 
d="M147 449v59h730v-59h-730zM147 694v60h730v-60h-730z" />
    <glyph glyph-name="greater" unicode="&#x3e;" horiz-adv-x="776" 
d="M664 621v-50l-531 -305v66l467 264l-467 264v66z" />
    <glyph glyph-name="question" unicode="?" horiz-adv-x="849" 
d="M401 51q0 23 16 39t38 16t37.5 -16t15.5 -39t-15.5 -39t-37.5 -16t-38 16t-16 39zM788 942q0 -31 -5.5 -60.5t-20.5 -60t-26 -51.5t-37 -53.5t-38 -47t-44.5 -50t-41.5 -46.5q-48 -55 -67.5 -93t-22.5 -85h-57q4 61 27.5 107t74.5 106q11 13 48.5 53.5t56 63.5t44 61.5
t37 76.5t11.5 79q0 128 -79.5 200t-211.5 72q-145 0 -231 -89t-101 -242h-63q18 178 122.5 284.5t272.5 106.5q161 0 256.5 -91t95.5 -241z" />
    <glyph glyph-name="at" unicode="@" horiz-adv-x="1585" 
d="M1106 776l-96 -540q-13 -74 17 -103t91 -29q140 0 233 116.5t93 324.5q0 234 -169 387t-435 153q-154 0 -286 -56.5t-221.5 -152.5t-140.5 -225.5t-51 -273.5q0 -129 38.5 -235.5t105 -180t156.5 -124t190.5 -74t210.5 -23.5q120 0 231.5 26t186.5 64v-59
q-191 -86 -418 -86q-119 0 -228 25t-206.5 79.5t-169.5 134t-114 196t-42 257.5q0 211 94 385t268.5 277.5t395.5 103.5q194 0 346 -78.5t234.5 -214.5t82.5 -305q0 -120 -32 -216t-86 -156t-122.5 -92t-144.5 -32q-73 0 -120.5 35t-51.5 98q-43 -53 -104.5 -90t-128.5 -37
q-127 0 -193.5 83t-66.5 214q0 111 44 210.5t129.5 164t192.5 64.5q74 0 129 -39.5t80 -92.5l21 117h57zM958 272l54 306q-26 70 -76 113.5t-115 43.5q-92 0 -165 -59t-109.5 -145.5t-36.5 -178.5q0 -113 55.5 -177t147.5 -64q135 0 245 161z" />
    <glyph glyph-name="A" unicode="A" horiz-adv-x="1161" 
d="M553 1257h55l504 -1257h-63l-177 438h-585l-174 -438h-64zM580 1169l-269 -669h537z" />
    <glyph glyph-name="B" unicode="B" horiz-adv-x="1050" 
d="M705 653q124 -17 197 -104t73 -209q0 -161 -106.5 -250.5t-297.5 -89.5h-401v1257h365q191 0 292 -83t101 -236q0 -63 -18.5 -113.5t-51 -84t-70.5 -54.5t-83 -33zM233 678h302q160 0 244.5 65t84.5 193q0 129 -84.5 194.5t-244.5 65.5h-302v-518zM233 621v-560h351
q158 0 242.5 75t84.5 204t-84.5 205t-242.5 76h-351z" />
    <glyph glyph-name="C" unicode="C" horiz-adv-x="1159" 
d="M82 629q0 147 43 269.5t117 204t173.5 126.5t213.5 45q168 0 287 -92t161 -246h-63q-42 129 -143 202.5t-242 73.5q-211 0 -346.5 -157.5t-135.5 -425.5t136 -426t346 -158q141 0 242 74t143 203h63q-42 -154 -161 -246t-287 -92q-114 0 -213.5 45t-173.5 126.5t-117 204
t-43 269.5z" />
    <glyph glyph-name="D" unicode="D" horiz-adv-x="1228" 
d="M233 61h308q244 0 392 155.5t148 412.5t-148 412t-392 155h-308v-1135zM170 0v1257h367q273 0 441.5 -171.5t168.5 -456.5q0 -286 -168.5 -457.5t-441.5 -171.5h-367z" />
    <glyph glyph-name="E" unicode="E" horiz-adv-x="1056" 
d="M170 1257h764v-61h-701v-516h635v-62h-635v-557h701v-61h-764v1257z" />
    <glyph glyph-name="F" unicode="F" horiz-adv-x="952" 
d="M233 0h-63v1257h700v-61h-637v-520h607v-60h-607v-616z" />
    <glyph glyph-name="G" unicode="G" horiz-adv-x="1208" 
d="M1065 510h-348v57h409v-63q0 -237 -132 -378.5t-359 -141.5q-115 0 -216 44.5t-176 126t-118 204t-43 270.5t43.5 270.5t119 204t176.5 126t216 44.5q171 0 293 -92t164 -246h-66q-42 129 -143.5 202.5t-247.5 73.5q-215 0 -352.5 -157t-137.5 -426t137 -426.5
t351 -157.5q204 0 316.5 120.5t113.5 344.5z" />
    <glyph glyph-name="H" unicode="H" horiz-adv-x="1327" 
d="M1094 1257h63v-1257h-63v618h-861v-618h-63v1257h63v-577h861v577z" />
    <glyph glyph-name="I" unicode="I" horiz-adv-x="403" 
d="M233 1257v-1257h-63v1257h63z" />
    <glyph glyph-name="J" unicode="J" horiz-adv-x="956" 
d="M41 340h65q15 -135 102 -215t220 -80q67 0 123 19t101 58.5t70.5 107t25.5 157.5v870h63v-870q0 -101 -30.5 -180t-83.5 -126.5t-121.5 -72t-147.5 -24.5q-158 0 -266.5 96.5t-120.5 259.5z" />
    <glyph glyph-name="K" unicode="K" horiz-adv-x="1085" 
d="M233 1257v-679l707 679h84l-598 -575l618 -682h-77l-586 639l-148 -141v-498h-63v1257h63z" />
    <glyph glyph-name="L" unicode="L" horiz-adv-x="1028" 
d="M170 0v1257h63v-1196h713v-61h-776z" />
    <glyph glyph-name="M" unicode="M" horiz-adv-x="1482" 
d="M758 0h-33l-494 1116v-1116h-61v1257h66l507 -1155l508 1155h62v-1257h-62v1116z" />
    <glyph glyph-name="N" unicode="N" horiz-adv-x="1251" 
d="M1081 1257v-1257h-34l-816 1157v-1157h-61v1257h61l789 -1114v1114h61z" />
    <glyph glyph-name="O" unicode="O" horiz-adv-x="1257" 
d="M1176 629q0 -288 -154.5 -466.5t-392.5 -178.5q-116 0 -216.5 46.5t-173.5 129.5t-115 204.5t-42 264.5t42 264.5t115 204.5t173.5 129.5t216.5 46.5q238 0 392.5 -178.5t154.5 -466.5zM1110 629q0 259 -133.5 421t-347.5 162q-213 0 -347.5 -162t-134.5 -421
t134.5 -421.5t347.5 -162.5q214 0 347.5 162t133.5 422z" />
    <glyph glyph-name="P" unicode="P" horiz-adv-x="1071" 
d="M612 571h-379v-571h-63v1257h442q183 0 284 -88t101 -254q0 -168 -100.5 -256t-284.5 -88zM934 915q0 136 -83 208.5t-241 72.5h-377v-563h377q158 0 241 72.5t83 209.5z" />
    <glyph glyph-name="Q" unicode="Q" horiz-adv-x="1257" 
d="M1036 -57l-104 137q-131 -96 -303 -96q-116 0 -216.5 46.5t-173.5 129.5t-115 204.5t-42 264.5t42 264.5t115 204.5t173.5 129.5t216.5 46.5q238 0 392.5 -178.5t154.5 -466.5q0 -163 -53 -295t-148 -219l104 -135zM1110 629q0 259 -133.5 421t-347.5 162
q-213 0 -347.5 -162t-134.5 -421t134.5 -421.5t347.5 -162.5q151 0 264 84l-105 139l43 35l105 -139q83 77 128.5 197.5t45.5 267.5z" />
    <glyph glyph-name="R" unicode="R" horiz-adv-x="1120" 
d="M588 573h-355v-573h-63v1257h430q182 0 282.5 -88t100.5 -254q0 -152 -83.5 -238.5t-237.5 -101.5l385 -575h-74zM233 1196v-563h363q157 0 240.5 73t83.5 209q0 137 -83 209t-241 72h-363z" />
    <glyph glyph-name="S" unicode="S" horiz-adv-x="1001" 
d="M57 291h68q41 -119 142.5 -183.5t240.5 -64.5q151 0 246.5 74.5t95.5 204.5q0 93 -54.5 157t-177.5 99l-249 73q-142 43 -210.5 109.5t-68.5 187.5q0 153 111.5 239.5t273.5 86.5q171 0 280.5 -81.5t149.5 -221.5h-65q-39 116 -130.5 179.5t-234.5 63.5
q-138 0 -230.5 -71t-92.5 -195q0 -45 12.5 -79.5t32 -58t56 -44t72.5 -34t93 -30.5l209 -63q154 -46 220 -122t66 -195q0 -157 -114.5 -247.5t-290.5 -90.5q-167 0 -290.5 80.5t-160.5 226.5z" />
    <glyph glyph-name="T" unicode="T" horiz-adv-x="1142" 
d="M63 1196v61h1016v-61h-477v-1196h-63v1196h-476z" />
    <glyph glyph-name="U" unicode="U" horiz-adv-x="1236" 
d="M616 -16q-98 0 -182.5 31.5t-149.5 93t-102 160.5t-37 225v763h64v-753q0 -114 31.5 -203.5t87 -145t128.5 -84t160 -28.5t160.5 28.5t130.5 84t89 145t32 203.5v753h64v-763q0 -126 -38 -225t-103.5 -160.5t-150.5 -93t-184 -31.5z" />
    <glyph glyph-name="V" unicode="V" horiz-adv-x="1161" 
d="M606 0h-53l-504 1257h66l465 -1163l467 1163h65z" />
    <glyph glyph-name="W" unicode="W" horiz-adv-x="1542" 
d="M743 1257h54l317 -1140l316 1140h63l-350 -1257h-56l-317 1137l-315 -1137h-56l-350 1257h64l315 -1140z" />
    <glyph glyph-name="X" unicode="X" horiz-adv-x="1081" 
d="M1010 1257l-435 -620l447 -637h-72l-411 586l-410 -586h-70l445 635l-434 622h71l400 -571l399 571h70z" />
    <glyph glyph-name="Y" unicode="Y" horiz-adv-x="1062" 
d="M532 608l420 649h70l-459 -708v-549h-63v549l-459 708h72z" />
    <glyph glyph-name="Z" unicode="Z" horiz-adv-x="1038" 
d="M963 61v-61h-893v53l807 1143h-797v61h874v-53l-807 -1143h816z" />
    <glyph glyph-name="bracketleft" unicode="[" horiz-adv-x="634" 
d="M229 1274v-1389h344v-57h-403v1503h403v-57h-344z" />
    <glyph glyph-name="backslash" unicode="\" horiz-adv-x="587" 
d="M70 1331l508 -1503h-60l-508 1503h60z" />
    <glyph glyph-name="bracketright" unicode="]" horiz-adv-x="634" 
d="M406 -115v1389h-345v57h404v-1503h-404v57h345z" />
    <glyph glyph-name="asciicircum" unicode="^" horiz-adv-x="602" 
d="M281 1257h41l219 -350h-72l-168 267l-168 -267h-72z" />
    <glyph glyph-name="underscore" unicode="_" horiz-adv-x="698" 
d="M41 -150v64h616v-64h-616z" />
    <glyph glyph-name="grave" unicode="`" 
d="M633 1071h-68l-174 260h68z" />
    <glyph glyph-name="a" unicode="a" horiz-adv-x="882" 
d="M739 0h-61v98q-37 -43 -109 -77.5t-153 -34.5q-142 0 -238 75.5t-96 198.5t96 199t238 76q81 0 153 -34.5t109 -78.5v194q0 116 -65.5 184t-182.5 68q-190 0 -246 -178h-63q27 113 110 174.5t199 61.5q142 0 225.5 -82.5t83.5 -220.5v-623zM678 195v131q-23 65 -97.5 108
t-164.5 43q-114 0 -193.5 -57.5t-79.5 -159.5t79.5 -159.5t193.5 -57.5q90 0 164.5 43.5t97.5 108.5z" />
    <glyph glyph-name="b" unicode="b" horiz-adv-x="991" 
d="M215 158v-158h-61v1331h61v-579q45 73 126 123.5t177 50.5q97 0 173 -38.5t121.5 -104.5t69 -149.5t23.5 -178.5t-23.5 -178.5t-69 -149.5t-121.5 -104.5t-173 -38.5q-96 0 -177 50.5t-126 123.5zM215 664v-418q53 -99 132 -151t171 -52q151 0 237.5 114t86.5 298
t-86.5 297.5t-237.5 113.5q-92 0 -171 -51.5t-132 -150.5z" />
    <glyph glyph-name="c" unicode="c" horiz-adv-x="897" 
d="M86 455q0 213 107.5 342t285.5 129q133 0 220 -74t116 -199h-67q-24 100 -94 157.5t-175 57.5q-147 0 -238 -113t-91 -300t91 -300.5t238 -113.5q105 0 175 57.5t94 157.5h67q-29 -125 -116 -198.5t-220 -73.5q-178 0 -285.5 129t-107.5 342z" />
    <glyph glyph-name="d" unicode="d" horiz-adv-x="991" 
d="M776 0v158q-45 -73 -126 -123.5t-177 -50.5q-97 0 -173 38.5t-121.5 104.5t-69 149.5t-23.5 178.5t23.5 178.5t69 149.5t121.5 104.5t173 38.5q96 0 177 -50.5t126 -123.5v579h62v-1331h-62zM776 246v418q-53 99 -132 150.5t-171 51.5q-151 0 -237 -113.5t-86 -297.5
t86 -298t237 -114q92 0 171 52t132 151z" />
    <glyph glyph-name="e" unicode="e" horiz-adv-x="919" 
d="M756 256h63q-28 -124 -118 -198t-222 -74q-175 0 -284 129.5t-109 341.5q0 207 105 339t286 132q173 0 267 -122t94 -321v-22h-688q0 -191 91.5 -305.5t237.5 -114.5q105 0 179.5 58t97.5 157zM477 868q-136 0 -223.5 -96.5t-101.5 -255.5h620q-3 94 -33 171t-97.5 129
t-164.5 52z" />
    <glyph glyph-name="f" unicode="f" horiz-adv-x="483" 
d="M522 1333v-61q-40 18 -90 18q-79 0 -128.5 -57t-49.5 -160v-164h219v-57h-219v-852h-61v852h-144v57h144v172q0 117 67.5 192t171.5 75q46 0 90 -15z" />
    <glyph glyph-name="g" unicode="g" horiz-adv-x="980" 
d="M766 59v117q-45 -72 -125 -122t-174 -50q-96 0 -170.5 37.5t-119.5 102t-68 146t-23 175.5t23 175.5t68 146t119.5 102t170.5 37.5q94 0 174 -50t125 -122v155h61v-848q0 -206 -97.5 -317t-266.5 -111q-148 0 -240.5 69.5t-120.5 193.5h66q26 -102 103 -153.5t192 -51.5
q144 0 223.5 94.5t79.5 273.5zM766 266v398q-52 97 -130.5 149.5t-168.5 52.5q-148 0 -232.5 -110.5t-84.5 -290.5t84.5 -291t232.5 -111q90 0 168.5 53t130.5 150z" />
    <glyph glyph-name="h" unicode="h" horiz-adv-x="980" 
d="M154 0v1331h61v-590q46 79 128.5 132t180.5 53q152 0 233 -87t81 -233v-606h-62v598q0 122 -64 195t-192 73q-99 0 -181 -61.5t-124 -153.5v-651h-61z" />
    <glyph glyph-name="i" unicode="i" horiz-adv-x="368" 
d="M215 909v-909h-61v909h61zM231 1186q0 -21 -13 -35t-34 -14t-34 14t-13 35t13 35t34 14t34 -14t13 -35z" />
    <glyph glyph-name="j" unicode="j" horiz-adv-x="368" 
d="M215 909v-1059q0 -107 -54.5 -161t-148.5 -54q-15 0 -35 5v57q16 -4 35 -4q71 0 106.5 35.5t35.5 130.5v1050h61zM231 1186q0 -21 -13 -35t-34 -14t-34 14t-13 35t13 35t34 14t34 -14t13 -35z" />
    <glyph glyph-name="k" unicode="k" horiz-adv-x="886" 
d="M768 0l-430 479l-123 -106v-373h-61v1331h61v-885l528 463h88l-448 -391l463 -518h-78z" />
    <glyph glyph-name="l" unicode="l" horiz-adv-x="368" 
d="M215 1331v-1331h-61v1331h61z" />
    <glyph glyph-name="m" unicode="m" horiz-adv-x="1452" 
d="M750 733q38 79 117 136t171 57q132 0 201.5 -83.5t69.5 -219.5v-623h-62v614q0 118 -53.5 185t-159.5 67q-91 0 -163.5 -60t-108.5 -151v-655h-62v614q0 118 -53.5 185t-159.5 67q-91 0 -163.5 -60t-108.5 -151v-655h-61v909h61v-164q38 78 111 129.5t166 51.5
q102 0 168 -51.5t90 -141.5z" />
    <glyph glyph-name="n" unicode="n" horiz-adv-x="980" 
d="M154 0v909h61v-168q46 79 128.5 132t180.5 53q152 0 233 -87t81 -233v-606h-62v598q0 122 -64 195t-192 73q-99 0 -181 -61.5t-124 -153.5v-651h-61z" />
    <glyph glyph-name="o" unicode="o" horiz-adv-x="954" 
d="M868 455q0 -211 -107 -341t-284 -130t-284 130t-107 341t107 341t284 130t284 -130t107 -341zM805 455q0 187 -90.5 300t-237.5 113t-237 -113t-90 -300t90 -300.5t237 -113.5t237.5 113.5t90.5 300.5z" />
    <glyph glyph-name="p" unicode="p" horiz-adv-x="991" 
d="M215 158v-506h-61v1257h61v-157q45 73 126 123.5t177 50.5q97 0 173 -38.5t121.5 -104.5t69 -149.5t23.5 -178.5t-23.5 -178.5t-69 -149.5t-121.5 -104.5t-173 -38.5q-96 0 -177 50.5t-126 123.5zM215 664v-418q53 -99 132 -151t171 -52q151 0 237.5 114t86.5 298
t-86.5 297.5t-237.5 113.5q-92 0 -171 -51.5t-132 -150.5z" />
    <glyph glyph-name="q" unicode="q" horiz-adv-x="991" 
d="M776 -348v506q-45 -73 -126 -123.5t-177 -50.5q-97 0 -173 38.5t-121.5 104.5t-69 149.5t-23.5 178.5t23.5 178.5t69 149.5t121.5 104.5t173 38.5q96 0 177 -50.5t126 -123.5v157h62v-1257h-62zM776 246v418q-53 99 -132 150.5t-171 51.5q-151 0 -237 -113.5t-86 -297.5
t86 -298t237 -114q92 0 171 52t132 151z" />
    <glyph glyph-name="r" unicode="r" horiz-adv-x="585" 
d="M549 915v-57q-33 10 -70 10q-87 0 -155.5 -59t-108.5 -156v-653h-61v909h61v-166q36 80 106 131.5t158 51.5q33 0 70 -11z" />
    <glyph glyph-name="s" unicode="s" horiz-adv-x="792" 
d="M59 225h64q30 -92 102.5 -138t177.5 -46q108 0 177 47.5t69 140.5q0 135 -190 189l-162 47q-104 30 -157.5 82t-53.5 141q0 112 84.5 175t208.5 63q131 0 216 -64t112 -176h-64q-31 94 -94.5 138t-169.5 44q-100 0 -166 -47t-66 -133q0 -72 43.5 -106.5t147.5 -65.5
l147 -43q226 -65 226 -244q0 -115 -86 -180t-222 -65q-132 0 -226.5 64t-117.5 177z" />
    <glyph glyph-name="t" unicode="t" horiz-adv-x="579" 
d="M190 197v655h-155v57h155v230h62v-230h246v-57h-246v-649q0 -84 34.5 -123t104.5 -39q59 0 127 33v-62q-61 -28 -127 -28q-95 0 -148 53.5t-53 159.5z" />
    <glyph glyph-name="u" unicode="u" horiz-adv-x="976" 
d="M823 909v-909h-61v168q-46 -79 -127 -131.5t-178 -52.5q-152 0 -233 86.5t-81 232.5v606h62v-598q0 -122 64 -195t192 -73q99 0 178.5 61t122.5 154v651h61z" />
    <glyph glyph-name="v" unicode="v" horiz-adv-x="851" 
d="M446 0h-40l-369 909h65l324 -807l324 807h65z" />
    <glyph glyph-name="w" unicode="w" horiz-adv-x="1200" 
d="M623 909l237 -788l244 788h59l-278 -909h-43l-242 797l-242 -797h-43l-278 909h59l244 -788l238 788h45z" />
    <glyph glyph-name="x" unicode="x" horiz-adv-x="856" 
d="M788 909l-325 -446l336 -463h-70l-301 414l-303 -414h-68l336 461l-325 448h69l291 -401l293 401h67z" />
    <glyph glyph-name="y" unicode="y" horiz-adv-x="851" 
d="M305 -348h-63l153 375l-358 882h67l322 -807l324 807h65z" />
    <glyph glyph-name="z" unicode="z" horiz-adv-x="825" 
d="M748 57v-57h-670v49l588 803h-582v57h657v-49l-585 -803h592z" />
    <glyph glyph-name="braceleft" unicode="{" horiz-adv-x="675" 
d="M276 446v-456q0 -105 97 -105h241v-57h-241q-68 0 -112 45t-44 117v456q0 105 -96 105h-80v57h80q96 0 96 105v456q0 72 44 117t112 45h241v-57h-241q-97 0 -97 -105v-456q0 -88 -75 -133q75 -48 75 -134z" />
    <glyph glyph-name="bar" unicode="|" horiz-adv-x="399" 
d="M170 -172v1503h59v-1503h-59z" />
    <glyph glyph-name="braceright" unicode="}" horiz-adv-x="675" 
d="M399 -10v456q0 85 76 134q-76 46 -76 133v456q0 105 -96 105h-242v57h242q68 0 112 -45t44 -117v-456q0 -105 96 -105h80v-57h-80q-96 0 -96 -105v-456q0 -72 -44 -117t-112 -45h-242v57h242q96 0 96 105z" />
    <glyph glyph-name="asciitilde" unicode="~" horiz-adv-x="813" 
d="M666 664h65q0 -96 -45 -152.5t-127 -56.5q-45 0 -89.5 24t-73.5 52.5t-66.5 52.5t-71.5 24q-53 0 -82 -39.5t-29 -105.5h-65q0 95 46 152t128 57q37 0 71.5 -16t62 -39t53.5 -46t55.5 -39t58.5 -16q53 0 81 40t28 108z" />
    <glyph glyph-name="uni00A0" unicode="&#xa0;" horiz-adv-x="452" 
 />
    <glyph glyph-name="exclamdown" unicode="&#xa1;" horiz-adv-x="425" 
d="M160 1010q0 23 15.5 39t37.5 16t37.5 -16t15.5 -39t-15.5 -39.5t-37.5 -16.5t-37.5 16.5t-15.5 39.5zM180 -197l8 865h50l8 -865h-66z" />
    <glyph glyph-name="cent" unicode="&#xa2;" horiz-adv-x="897" 
d="M86 475q0 206 102.5 335t272.5 136v178h57v-180q117 -10 193.5 -82t103.5 -188h-67q-24 100 -94 157.5t-175 57.5q-147 0 -238 -113.5t-91 -300.5t91 -300.5t238 -113.5q105 0 175 57.5t94 157.5h67q-27 -116 -103.5 -188t-193.5 -82v-174h-57v172q-170 6 -272.5 135
t-102.5 336z" />
    <glyph glyph-name="sterling" unicode="&#xa3;" horiz-adv-x="983" 
d="M319 864v-217h369v-53h-369v-346q0 -54 -14 -105t-37 -82h645v-61h-847v61h139q27 42 40 83.5t13 103.5v346h-192v53h192v217q0 193 94.5 301.5t249.5 108.5q131 0 212.5 -68t107.5 -186h-66q-46 194 -254 194q-128 0 -205.5 -90.5t-77.5 -259.5z" />
    <glyph glyph-name="yen" unicode="&#xa5;" horiz-adv-x="1030" 
d="M162 535v55h321l-417 667h71l379 -610l379 610h70l-418 -667h321v-55h-321v-170h321v-56h-321v-309h-64v309h-321v56h321v170h-321z" />
    <glyph glyph-name="section" unicode="&#xa7;" horiz-adv-x="890" 
d="M692 172q39 -58 39 -141q0 -113 -81.5 -177.5t-203.5 -64.5q-131 0 -215.5 64t-111.5 176h63q31 -94 95 -138.5t169 -44.5q98 0 161 49t63 136q0 66 -22.5 99.5t-86.5 78.5l-328 227q-89 61 -130.5 112t-41.5 126q0 73 38.5 127t101.5 84q-41 61 -41 147q0 113 81 177.5
t203 64.5q131 0 216 -64t112 -176h-63q-31 94 -95 138.5t-170 44.5q-98 0 -160.5 -49t-62.5 -136q0 -66 22.5 -99.5t86.5 -78.5l327 -227q89 -61 130.5 -112t41.5 -126q0 -74 -38 -131t-99 -86zM270 487l383 -266q113 54 113 168q0 30 -9.5 55.5t-32.5 48.5t-44 39.5
t-59 42.5l-383 267q-113 -54 -113 -168q0 -57 34.5 -96.5t110.5 -90.5z" />
    <glyph glyph-name="dieresis" unicode="&#xa8;" 
d="M348 1167q0 20 13.5 33.5t33.5 13.5t33.5 -13.5t13.5 -33.5t-13.5 -33.5t-33.5 -13.5t-33.5 13.5t-13.5 33.5zM582 1167q0 20 13.5 33.5t33.5 13.5t33.5 -13.5t13.5 -33.5t-13.5 -33.5t-33.5 -13.5t-33.5 13.5t-13.5 33.5z" />
    <glyph glyph-name="copyright" unicode="&#xa9;" horiz-adv-x="1454" 
d="M1372 629q0 -138 -51 -258.5t-138.5 -205t-206 -133t-249.5 -48.5t-249.5 48.5t-206 133t-138.5 205t-51 258.5t51 258.5t138.5 205t206 133t249.5 48.5t249.5 -48.5t206 -133t138.5 -205t51 -258.5zM1319 629q0 168 -80 304.5t-215 212t-297 75.5t-297 -75.5t-215 -212
t-80 -304.5t80 -304.5t215 -212t297 -75.5t297 75.5t215 212t80 304.5zM385 633q0 185 100 296t252 111q114 0 192 -61.5t105 -165.5h-63q-27 79 -87.5 123.5t-146.5 44.5q-127 0 -207.5 -94.5t-80.5 -253.5t80.5 -253.5t207.5 -94.5q86 0 146.5 44.5t87.5 123.5h63
q-27 -105 -105 -166.5t-192 -61.5q-151 0 -251.5 111.5t-100.5 296.5z" />
    <glyph glyph-name="ordfeminine" unicode="&#xaa;" horiz-adv-x="569" 
d="M489 657h-57v60q-23 -27 -70 -48.5t-100 -21.5q-95 0 -158 51.5t-63 135.5q0 82 64 133t159 51q51 0 97 -20.5t71 -47.5v113q0 72 -41 114t-115 42q-115 0 -151 -107h-59q19 76 76 118t137 42q98 0 154 -55.5t56 -149.5v-410zM432 793v79q-15 40 -62 66.5t-102 26.5
q-71 0 -120.5 -34t-49.5 -97t50 -98.5t120 -35.5q55 0 102 26.5t62 66.5z" />
    <glyph glyph-name="guillemotleft" unicode="&#xab;" horiz-adv-x="577" 
d="M307 193h-67l-189 262l189 262h67l-188 -262zM526 193h-67l-189 262l189 262h67l-188 -262z" />
    <glyph glyph-name="registered" unicode="&#xae;" horiz-adv-x="864" 
d="M803 899q0 -161 -108.5 -268t-262.5 -107t-262.5 107t-108.5 268t108.5 268t262.5 107t262.5 -107t108.5 -268zM750 899q0 138 -93 230t-225 92t-224.5 -92t-92.5 -230t92.5 -229.5t224.5 -91.5t225 91.5t93 229.5zM424 868h-68v-159h-55v393h152q61 0 97 -31t36 -86
q0 -46 -28 -76.5t-73 -38.5l115 -161h-65zM530 985q0 27 -19 45.5t-52 18.5h-103v-127h103q33 0 52 18t19 45z" />
    <glyph glyph-name="macron" unicode="&#xaf;" 
d="M313 1110v55h396v-55h-396z" />
    <glyph glyph-name="degree" unicode="&#xb0;" horiz-adv-x="618" 
d="M150 1055q0 -67 46.5 -114.5t112.5 -47.5t113 47.5t47 114.5t-47 114.5t-113 47.5t-112.5 -47.5t-46.5 -114.5zM526 1055q0 -92 -63 -155.5t-154 -63.5t-154 63.5t-63 155.5t63 155.5t154 63.5t154 -63.5t63 -155.5z" />
    <glyph glyph-name="plusminus" unicode="&#xb1;" horiz-adv-x="1013" 
d="M477 979h60v-252h333v-59h-333v-252h-60v252h-334v59h334v252zM143 238v59h727v-59h-727z" />
    <glyph glyph-name="twosuperior" unicode="&#xb2;" horiz-adv-x="518" 
d="M397 1083q0 60 -36.5 95.5t-98.5 35.5q-68 0 -107.5 -42.5t-45.5 -114.5h-62q9 96 66.5 154.5t148.5 58.5q89 0 142 -51.5t53 -135.5q0 -13 -2.5 -26t-5 -23.5t-9.5 -24t-11 -22t-14.5 -23t-15.5 -21.5t-18.5 -23t-18 -21t-20.5 -22.5t-20 -22.5l-195 -211h338v-55h-420
v41l231 256q38 41 50.5 55.5t34.5 43.5t29 51.5t7 47.5z" />
    <glyph glyph-name="threesuperior" unicode="&#xb3;" horiz-adv-x="538" 
d="M219 907v51h51q59 0 98.5 34.5t39.5 94.5q0 56 -39.5 91.5t-102.5 35.5q-58 0 -98 -35.5t-51 -95.5h-60q12 84 69 135.5t140 51.5q92 0 146.5 -50.5t54.5 -129.5q0 -59 -34.5 -102t-86.5 -54q59 -11 97 -54.5t38 -107.5q0 -82 -57 -138t-154 -56q-95 0 -154 51t-71 141
h64q11 -65 52.5 -101t108.5 -36q68 0 109 38t41 101q0 61 -43 98t-107 37h-51z" />
    <glyph glyph-name="acute" unicode="&#xb4;" 
d="M459 1071h-68l174 260h68z" />
    <glyph glyph-name="paragraph" unicode="&#xb6;" horiz-adv-x="849" 
d="M621 -184v1441h59v-1441h-59zM426 -184v934q-71 0 -137.5 15t-123 44.5t-90.5 80t-34 114.5t34 114t90.5 79.5t123 44.5t137.5 15h59v-1441h-59z" />
    <glyph glyph-name="periodcentered" unicode="&#xb7;" horiz-adv-x="270" 
d="M82 532q0 23 15.5 39.5t37.5 16.5t37.5 -16.5t15.5 -39.5t-15.5 -39t-37.5 -16t-37.5 16t-15.5 39z" />
    <glyph glyph-name="cedilla" unicode="&#xb8;" 
d="M481 -348h-59l113 254h59z" />
    <glyph glyph-name="onesuperior" unicode="&#xb9;" horiz-adv-x="401" 
d="M270 1262v-674h-59v600l-174 -90v63l196 101h37z" />
    <glyph glyph-name="ordmasculine" unicode="&#xba;" horiz-adv-x="614" 
d="M571 958q0 -139 -72.5 -226t-191.5 -87t-192.5 87t-73.5 226q0 140 73 227t193 87q119 0 191.5 -87t72.5 -227zM512 958q0 117 -56.5 189t-148.5 72t-148.5 -72t-56.5 -189t56.5 -187.5t148.5 -70.5t148.5 70.5t56.5 187.5z" />
    <glyph glyph-name="guillemotright" unicode="&#xbb;" horiz-adv-x="577" 
d="M338 193h-68l189 262l-189 262h68l188 -262zM119 193h-68l189 262l-189 262h68l188 -262z" />
    <glyph glyph-name="onequarter" unicode="&#xbc;" horiz-adv-x="1282" 
d="M1061 1257l-838 -1257h-61l837 1257h62zM340 1262v-674h-59v600l-175 -90v63l197 101h37zM1008 672l-258 -457h247v166h58v-166h125v-53h-125v-162h-58v162h-315v47l264 463h62z" />
    <glyph glyph-name="onehalf" unicode="&#xbd;" horiz-adv-x="1294" 
d="M1061 1257l-838 -1257h-61l837 1257h62zM340 1262v-674h-59v600l-175 -90v63l197 101h37zM1116 496q0 60 -36.5 95.5t-98.5 35.5q-68 0 -108 -43t-46 -115h-61q9 96 66.5 154.5t148.5 58.5q89 0 142 -51t53 -135q0 -13 -2.5 -26t-5 -23.5t-9.5 -24t-11 -22.5t-14.5 -23.5
t-15.5 -21.5t-19 -22.5t-18.5 -21t-20.5 -23t-20 -22.5l-194 -211h338v-55h-420v41l231 256q47 51 65.5 73t37 57.5t18.5 68.5z" />
    <glyph glyph-name="threequarters" unicode="&#xbe;" horiz-adv-x="1370" 
d="M1149 1257l-838 -1257h-61l837 1257h62zM272 905v51h52q59 0 98 34.5t39 94.5q0 56 -39.5 91.5t-102.5 35.5q-58 0 -98 -35.5t-51 -95.5h-59q12 84 68.5 135.5t139.5 51.5q92 0 146.5 -50.5t54.5 -130.5q0 -59 -34.5 -101.5t-86.5 -53.5q59 -11 97.5 -54.5t38.5 -107.5
q0 -83 -57 -139t-154 -56q-95 0 -154.5 51.5t-71.5 141.5h64q11 -65 53 -101t109 -36q68 0 108.5 38t40.5 101q0 61 -43 98t-106 37h-52zM1096 672l-258 -457h247v166h58v-166h125v-53h-125v-162h-58v162h-315v47l264 463h62z" />
    <glyph glyph-name="questiondown" unicode="&#xbf;" horiz-adv-x="849" 
d="M449 1010q0 -23 -16 -39.5t-38 -16.5t-37.5 16.5t-15.5 39.5t15.5 39t37.5 16t38 -16t16 -39zM61 119q0 31 5.5 60.5t20 59.5t26.5 51.5t37 53t38 47t44.5 50t41.5 46.5q48 55 68 93.5t23 85.5h57q-4 -61 -28 -107t-75 -106q-12 -14 -40.5 -45t-45.5 -50.5t-40.5 -51
t-36.5 -58t-23 -61t-10 -68.5q0 -128 80 -200.5t211 -72.5q144 0 230 89.5t101 242.5h64q-18 -178 -122.5 -284.5t-272.5 -106.5q-161 0 -257 91t-96 241z" />
    <glyph glyph-name="Agrave" unicode="&#xc0;" horiz-adv-x="1161" 
d="M553 1257h55l504 -1257h-63l-177 438h-585l-174 -438h-64zM580 1169l-269 -669h537zM606 1358h-67l-174 239h67z" />
    <glyph glyph-name="Aacute" unicode="&#xc1;" horiz-adv-x="1161" 
d="M553 1257h55l504 -1257h-63l-177 438h-585l-174 -438h-64zM580 1169l-269 -669h537zM621 1358h-68l174 239h68z" />
    <glyph glyph-name="Acircumflex" unicode="&#xc2;" horiz-adv-x="1161" 
d="M553 1257h55l504 -1257h-63l-177 438h-585l-174 -438h-64zM580 1169l-269 -669h537zM606 1604l187 -240h-64l-149 188l-150 -188h-63l186 240h53z" />
    <glyph glyph-name="Atilde" unicode="&#xc3;" horiz-adv-x="1161" 
d="M553 1257h55l504 -1257h-63l-177 438h-585l-174 -438h-64zM580 1169l-269 -669h537zM770 1554h53q0 -91 -33.5 -142.5t-95.5 -51.5q-37 0 -70.5 22.5t-54.5 49t-48 49t-52 22.5q-37 0 -57.5 -37t-20.5 -100h-53q0 90 33.5 142.5t95.5 52.5q37 0 70 -22.5t54 -49.5
t48 -49.5t53 -22.5q37 0 57.5 37t20.5 100z" />
    <glyph glyph-name="Adieresis" unicode="&#xc4;" horiz-adv-x="1161" 
d="M553 1257h55l504 -1257h-63l-177 438h-585l-174 -438h-64zM580 1169l-269 -669h537zM416 1454q0 20 13.5 33.5t33.5 13.5t33.5 -13.5t13.5 -33.5t-13.5 -33.5t-33.5 -13.5t-33.5 13.5t-13.5 33.5zM649 1454q0 20 13.5 33.5t33.5 13.5t33.5 -13.5t13.5 -33.5t-13.5 -33.5
t-33.5 -13.5t-33.5 13.5t-13.5 33.5z" />
    <glyph glyph-name="Aring" unicode="&#xc5;" horiz-adv-x="1161" 
d="M553 1257h55l504 -1257h-63l-177 438h-585l-174 -438h-64zM580 1169l-269 -669h537zM737 1483q0 -66 -45.5 -112t-111.5 -46t-112 46t-46 112t46 111.5t112 45.5t111.5 -45.5t45.5 -111.5zM686 1483q0 44 -31 75t-75 31t-75.5 -31t-31.5 -75t31.5 -75.5t75.5 -31.5
t75 31.5t31 75.5z" />
    <glyph glyph-name="AE" unicode="&#xc6;" horiz-adv-x="1751" 
d="M854 1257h774v-61h-680v-516h615v-62h-615v-557h680v-61h-743v438h-488l-280 -438h-68zM885 1194l-447 -694h447v694z" />
    <glyph glyph-name="Ccedilla" unicode="&#xc7;" horiz-adv-x="1159" 
d="M555 -348h-59l112 254h60zM82 629q0 147 43 269.5t117 204t173.5 126.5t213.5 45q168 0 287 -92t161 -246h-63q-42 129 -143 202.5t-242 73.5q-211 0 -346.5 -157.5t-135.5 -425.5t136 -426t346 -158q141 0 242 74t143 203h63q-42 -154 -161 -246t-287 -92
q-114 0 -213.5 45t-173.5 126.5t-117 204t-43 269.5z" />
    <glyph glyph-name="Egrave" unicode="&#xc8;" horiz-adv-x="1056" 
d="M170 1257h764v-61h-701v-516h635v-62h-635v-557h701v-61h-764v1257zM598 1358h-68l-174 239h68z" />
    <glyph glyph-name="Eacute" unicode="&#xc9;" horiz-adv-x="1056" 
d="M170 1257h764v-61h-701v-516h635v-62h-635v-557h701v-61h-764v1257zM588 1358h-68l174 239h68z" />
    <glyph glyph-name="Ecircumflex" unicode="&#xca;" horiz-adv-x="1056" 
d="M170 1257h764v-61h-701v-516h635v-62h-635v-557h701v-61h-764v1257zM590 1604l186 -240h-63l-150 188l-149 -188h-64l187 240h53z" />
    <glyph glyph-name="Edieresis" unicode="&#xcb;" horiz-adv-x="1056" 
d="M170 1257h764v-61h-701v-516h635v-62h-635v-557h701v-61h-764v1257zM399 1454q0 20 13.5 33.5t33.5 13.5t34 -13.5t14 -33.5t-14 -33.5t-34 -13.5t-33.5 13.5t-13.5 33.5zM633 1454q0 20 13.5 33.5t33.5 13.5t33.5 -13.5t13.5 -33.5t-13.5 -33.5t-33.5 -13.5t-33.5 13.5
t-13.5 33.5z" />
    <glyph glyph-name="Igrave" unicode="&#xcc;" horiz-adv-x="403" 
d="M233 1257v-1257h-63v1257h63zM236 1358h-68l-174 239h67z" />
    <glyph glyph-name="Iacute" unicode="&#xcd;" horiz-adv-x="403" 
d="M233 1257v-1257h-63v1257h63zM225 1358h-67l174 239h67z" />
    <glyph glyph-name="Icircumflex" unicode="&#xce;" horiz-adv-x="403" 
d="M233 1257v-1257h-63v1257h63zM227 1604l187 -240h-64l-149 188l-150 -188h-63l186 240h53z" />
    <glyph glyph-name="Idieresis" unicode="&#xcf;" horiz-adv-x="403" 
d="M233 1257v-1257h-63v1257h63zM37 1454q0 20 13.5 33.5t33.5 13.5t33.5 -13.5t13.5 -33.5t-13.5 -33.5t-33.5 -13.5t-33.5 13.5t-13.5 33.5zM270 1454q0 20 13.5 33.5t33.5 13.5t34 -13.5t14 -33.5t-14 -33.5t-34 -13.5t-33.5 13.5t-13.5 33.5z" />
    <glyph glyph-name="Eth" unicode="&#xd0;" horiz-adv-x="1253" 
d="M72 623v57h123v577h366q273 0 441.5 -171.5t168.5 -456.5q0 -286 -168.5 -457.5t-441.5 -171.5h-366v623h-123zM258 61h307q244 0 392.5 155.5t148.5 412.5q0 256 -148 411.5t-393 155.5h-307v-516h277v-57h-277v-562z" />
    <glyph glyph-name="Ntilde" unicode="&#xd1;" horiz-adv-x="1251" 
d="M1081 1257v-1257h-34l-816 1157v-1157h-61v1257h61l789 -1114v1114h61zM815 1554h53q0 -91 -33.5 -142.5t-95.5 -51.5q-37 0 -70.5 22.5t-54.5 49t-48 49t-52 22.5q-37 0 -57.5 -37t-20.5 -100h-53q0 90 33.5 142.5t95.5 52.5q37 0 70 -22.5t54 -49.5t48 -49.5t53 -22.5
q37 0 57.5 37t20.5 100z" />
    <glyph glyph-name="Ograve" unicode="&#xd2;" horiz-adv-x="1257" 
d="M1176 629q0 -288 -154.5 -466.5t-392.5 -178.5q-116 0 -216.5 46.5t-173.5 129.5t-115 204.5t-42 264.5t42 264.5t115 204.5t173.5 129.5t216.5 46.5q238 0 392.5 -178.5t154.5 -466.5zM1110 629q0 259 -133.5 421t-347.5 162q-213 0 -347.5 -162t-134.5 -421
t134.5 -421.5t347.5 -162.5q214 0 347.5 162t133.5 422zM664 1358h-68l-174 239h67z" />
    <glyph glyph-name="Oacute" unicode="&#xd3;" horiz-adv-x="1257" 
d="M1176 629q0 -288 -154.5 -466.5t-392.5 -178.5q-116 0 -216.5 46.5t-173.5 129.5t-115 204.5t-42 264.5t42 264.5t115 204.5t173.5 129.5t216.5 46.5q238 0 392.5 -178.5t154.5 -466.5zM1110 629q0 259 -133.5 421t-347.5 162q-213 0 -347.5 -162t-134.5 -421
t134.5 -421.5t347.5 -162.5q214 0 347.5 162t133.5 422zM653 1358h-67l174 239h67z" />
    <glyph glyph-name="Ocircumflex" unicode="&#xd4;" horiz-adv-x="1257" 
d="M1176 629q0 -288 -154.5 -466.5t-392.5 -178.5q-116 0 -216.5 46.5t-173.5 129.5t-115 204.5t-42 264.5t42 264.5t115 204.5t173.5 129.5t216.5 46.5q238 0 392.5 -178.5t154.5 -466.5zM1110 629q0 259 -133.5 421t-347.5 162q-213 0 -347.5 -162t-134.5 -421
t134.5 -421.5t347.5 -162.5q214 0 347.5 162t133.5 422zM655 1604l187 -240h-64l-149 188l-150 -188h-63l186 240h53z" />
    <glyph glyph-name="Otilde" unicode="&#xd5;" horiz-adv-x="1257" 
d="M1176 629q0 -288 -154.5 -466.5t-392.5 -178.5q-116 0 -216.5 46.5t-173.5 129.5t-115 204.5t-42 264.5t42 264.5t115 204.5t173.5 129.5t216.5 46.5q238 0 392.5 -178.5t154.5 -466.5zM1110 629q0 259 -133.5 421t-347.5 162q-213 0 -347.5 -162t-134.5 -421
t134.5 -421.5t347.5 -162.5q214 0 347.5 162t133.5 422zM819 1554h53q0 -91 -33.5 -142.5t-95.5 -51.5q-37 0 -70.5 22.5t-54.5 49t-48 49t-52 22.5q-37 0 -57.5 -37t-20.5 -100h-53q0 90 33.5 142.5t95.5 52.5q37 0 70 -22.5t54 -49.5t48 -49.5t53 -22.5q37 0 57.5 37
t20.5 100z" />
    <glyph glyph-name="Odieresis" unicode="&#xd6;" horiz-adv-x="1257" 
d="M1176 629q0 -288 -154.5 -466.5t-392.5 -178.5q-116 0 -216.5 46.5t-173.5 129.5t-115 204.5t-42 264.5t42 264.5t115 204.5t173.5 129.5t216.5 46.5q238 0 392.5 -178.5t154.5 -466.5zM1110 629q0 259 -133.5 421t-347.5 162q-213 0 -347.5 -162t-134.5 -421
t134.5 -421.5t347.5 -162.5q214 0 347.5 162t133.5 422zM465 1454q0 20 13.5 33.5t33.5 13.5t33.5 -13.5t13.5 -33.5t-13.5 -33.5t-33.5 -13.5t-33.5 13.5t-13.5 33.5zM698 1454q0 20 13.5 33.5t33.5 13.5t34 -13.5t14 -33.5t-14 -33.5t-34 -13.5t-33.5 13.5t-13.5 33.5z
" />
    <glyph glyph-name="multiply" unicode="&#xd7;" horiz-adv-x="864" 
d="M393 594l-248 250l41 39l246 -250l246 250l41 -39l-246 -250l246 -250l-41 -39l-246 248l-246 -248l-41 39z" />
    <glyph glyph-name="Oslash" unicode="&#xd8;" horiz-adv-x="1277" 
d="M92 0l144 174q-144 181 -144 455q0 143 42 264.5t115 204.5t173.5 129.5t216.5 46.5q221 0 373 -158l114 141l45 -36l-122 -148q137 -177 137 -444q0 -288 -154.5 -466.5t-392.5 -178.5q-215 0 -365 147l-137 -168zM158 629q0 -249 118 -404l695 844q-130 143 -332 143
q-213 0 -347 -162t-134 -421zM1120 629q0 237 -112 393l-693 -842q129 -135 324 -135q214 0 347.5 162t133.5 422z" />
    <glyph glyph-name="Ugrave" unicode="&#xd9;" horiz-adv-x="1236" 
d="M616 -16q-98 0 -182.5 31.5t-149.5 93t-102 160.5t-37 225v763h64v-753q0 -114 31.5 -203.5t87 -145t128.5 -84t160 -28.5t160.5 28.5t130.5 84t89 145t32 203.5v753h64v-763q0 -126 -38 -225t-103.5 -160.5t-150.5 -93t-184 -31.5zM653 1358h-67l-174 239h67z" />
    <glyph glyph-name="Uacute" unicode="&#xda;" horiz-adv-x="1236" 
d="M616 -16q-98 0 -182.5 31.5t-149.5 93t-102 160.5t-37 225v763h64v-753q0 -114 31.5 -203.5t87 -145t128.5 -84t160 -28.5t160.5 28.5t130.5 84t89 145t32 203.5v753h64v-763q0 -126 -38 -225t-103.5 -160.5t-150.5 -93t-184 -31.5zM643 1358h-68l175 239h67z" />
    <glyph glyph-name="Ucircumflex" unicode="&#xdb;" horiz-adv-x="1236" 
d="M616 -16q-98 0 -182.5 31.5t-149.5 93t-102 160.5t-37 225v763h64v-753q0 -114 31.5 -203.5t87 -145t128.5 -84t160 -28.5t160.5 28.5t130.5 84t89 145t32 203.5v753h64v-763q0 -126 -38 -225t-103.5 -160.5t-150.5 -93t-184 -31.5zM645 1604l186 -240h-63l-150 188
l-149 -188h-63l186 240h53z" />
    <glyph glyph-name="Udieresis" unicode="&#xdc;" horiz-adv-x="1236" 
d="M616 -16q-98 0 -182.5 31.5t-149.5 93t-102 160.5t-37 225v763h64v-753q0 -114 31.5 -203.5t87 -145t128.5 -84t160 -28.5t160.5 28.5t130.5 84t89 145t32 203.5v753h64v-763q0 -126 -38 -225t-103.5 -160.5t-150.5 -93t-184 -31.5zM455 1454q0 20 13.5 33.5t33.5 13.5
t33.5 -13.5t13.5 -33.5t-13.5 -33.5t-33.5 -13.5t-33.5 13.5t-13.5 33.5zM688 1454q0 20 13.5 33.5t33.5 13.5t33.5 -13.5t13.5 -33.5t-13.5 -33.5t-33.5 -13.5t-33.5 13.5t-13.5 33.5z" />
    <glyph glyph-name="Yacute" unicode="&#xdd;" horiz-adv-x="1062" 
d="M532 608l420 649h70l-459 -708v-549h-63v549l-459 708h72zM555 1358h-68l175 239h67z" />
    <glyph glyph-name="Thorn" unicode="&#xde;" horiz-adv-x="1071" 
d="M612 301h-379v-301h-63v1257h63v-270h379q183 0 284 -88t101 -254q0 -168 -100.5 -256t-284.5 -88zM934 645q0 136 -83 208.5t-241 72.5h-377v-564h377q158 0 241 73t83 210z" />
    <glyph glyph-name="germandbls" unicode="&#xdf;" horiz-adv-x="1011" 
d="M588 762q63 -5 121.5 -32t107 -72.5t78 -117t29.5 -157.5q0 -183 -104 -291t-269 -108q-119 0 -205 57v65q89 -65 205 -65q141 0 225 90.5t84 251.5q0 162 -106 254t-275 92h-90v57h90q114 0 190 77.5t76 187.5q0 103 -66 171t-181 68q-135 0 -209 -89.5t-74 -239.5v-961
h-61v963q0 168 89 276.5t255 108.5q141 0 226 -85.5t85 -211.5q0 -111 -62.5 -185t-158.5 -104z" />
    <glyph glyph-name="agrave" unicode="&#xe0;" horiz-adv-x="882" 
d="M489 1071h-67l-174 260h67zM739 0h-61v98q-37 -43 -109 -77.5t-153 -34.5q-142 0 -238 75.5t-96 198.5t96 199t238 76q81 0 153 -34.5t109 -78.5v194q0 116 -65.5 184t-182.5 68q-190 0 -246 -178h-63q27 113 110 174.5t199 61.5q142 0 225.5 -82.5t83.5 -220.5v-623z
M678 195v131q-23 65 -97.5 108t-164.5 43q-114 0 -193.5 -57.5t-79.5 -159.5t79.5 -159.5t193.5 -57.5q90 0 164.5 43.5t97.5 108.5z" />
    <glyph glyph-name="aacute" unicode="&#xe1;" horiz-adv-x="882" 
d="M471 1071h-68l175 260h67zM739 0h-61v98q-37 -43 -109 -77.5t-153 -34.5q-142 0 -238 75.5t-96 198.5t96 199t238 76q81 0 153 -34.5t109 -78.5v194q0 116 -65.5 184t-182.5 68q-190 0 -246 -178h-63q27 113 110 174.5t199 61.5q142 0 225.5 -82.5t83.5 -220.5v-623z
M678 195v131q-23 65 -97.5 108t-164.5 43q-114 0 -193.5 -57.5t-79.5 -159.5t79.5 -159.5t193.5 -57.5q90 0 164.5 43.5t97.5 108.5z" />
    <glyph glyph-name="acircumflex" unicode="&#xe2;" horiz-adv-x="882" 
d="M473 1317l186 -260h-63l-150 211l-149 -211h-64l187 260h53zM739 0h-61v98q-37 -43 -109 -77.5t-153 -34.5q-142 0 -238 75.5t-96 198.5t96 199t238 76q81 0 153 -34.5t109 -78.5v194q0 116 -65.5 184t-182.5 68q-190 0 -246 -178h-63q27 113 110 174.5t199 61.5
q142 0 225.5 -82.5t83.5 -220.5v-623zM678 195v131q-23 65 -97.5 108t-164.5 43q-114 0 -193.5 -57.5t-79.5 -159.5t79.5 -159.5t193.5 -57.5q90 0 164.5 43.5t97.5 108.5z" />
    <glyph glyph-name="atilde" unicode="&#xe3;" horiz-adv-x="882" 
d="M639 1268h53q0 -91 -33.5 -143t-95.5 -52q-37 0 -70.5 22.5t-54.5 49.5t-48 49.5t-52 22.5q-37 0 -57.5 -37.5t-20.5 -100.5h-53q0 90 33.5 142.5t95.5 52.5q37 0 70 -22.5t54 -49.5t48 -49.5t53 -22.5q37 0 57.5 37.5t20.5 100.5zM739 0h-61v98q-37 -43 -109 -77.5
t-153 -34.5q-142 0 -238 75.5t-96 198.5t96 199t238 76q81 0 153 -34.5t109 -78.5v194q0 116 -65.5 184t-182.5 68q-190 0 -246 -178h-63q27 113 110 174.5t199 61.5q142 0 225.5 -82.5t83.5 -220.5v-623zM678 195v131q-23 65 -97.5 108t-164.5 43q-114 0 -193.5 -57.5
t-79.5 -159.5t79.5 -159.5t193.5 -57.5q90 0 164.5 43.5t97.5 108.5z" />
    <glyph glyph-name="adieresis" unicode="&#xe4;" horiz-adv-x="882" 
d="M283 1167q0 20 13.5 33.5t33.5 13.5t33.5 -13.5t13.5 -33.5t-13.5 -33.5t-33.5 -13.5t-33.5 13.5t-13.5 33.5zM516 1167q0 20 13.5 33.5t33.5 13.5t33.5 -13.5t13.5 -33.5t-13.5 -33.5t-33.5 -13.5t-33.5 13.5t-13.5 33.5zM739 0h-61v98q-37 -43 -109 -77.5t-153 -34.5
q-142 0 -238 75.5t-96 198.5t96 199t238 76q81 0 153 -34.5t109 -78.5v194q0 116 -65.5 184t-182.5 68q-190 0 -246 -178h-63q27 113 110 174.5t199 61.5q142 0 225.5 -82.5t83.5 -220.5v-623zM678 195v131q-23 65 -97.5 108t-164.5 43q-114 0 -193.5 -57.5t-79.5 -159.5
t79.5 -159.5t193.5 -57.5q90 0 164.5 43.5t97.5 108.5z" />
    <glyph glyph-name="aring" unicode="&#xe5;" horiz-adv-x="882" 
d="M602 1188q0 -66 -46 -112t-112 -46t-111.5 46t-45.5 112t45.5 112t111.5 46t112 -46t46 -112zM551 1188q0 44 -31.5 75t-75.5 31t-75 -31t-31 -75t31 -75.5t75 -31.5t75.5 31.5t31.5 75.5zM739 0h-61v98q-37 -43 -109 -77.5t-153 -34.5q-142 0 -238 75.5t-96 198.5
t96 199t238 76q81 0 153 -34.5t109 -78.5v194q0 116 -65.5 184t-182.5 68q-190 0 -246 -178h-63q27 113 110 174.5t199 61.5q142 0 225.5 -82.5t83.5 -220.5v-623zM678 195v131q-23 65 -97.5 108t-164.5 43q-114 0 -193.5 -57.5t-79.5 -159.5t79.5 -159.5t193.5 -57.5
q90 0 164.5 43.5t97.5 108.5z" />
    <glyph glyph-name="ae" unicode="&#xe6;" horiz-adv-x="1497" 
d="M371 41q113 0 190 70t109 174v176h-264q-114 0 -193.5 -56t-79.5 -155t67 -154t171 -55zM1333 256h64q-28 -124 -118 -198t-222 -74q-118 0 -209 64.5t-139 176.5q-43 -100 -128 -169.5t-210 -69.5q-132 0 -215.5 72t-83.5 192t96 193t238 73h264v100q0 116 -65.5 184
t-182.5 68q-190 0 -246 -178h-63q27 113 110 174.5t199 61.5q118 0 196.5 -61.5t100.5 -166.5q50 105 135.5 166.5t200.5 61.5q173 0 266.5 -122t93.5 -321v-22h-688q0 -195 91.5 -307.5t238.5 -112.5q105 0 179 58t97 157zM1055 868q-137 0 -225.5 -96.5t-100.5 -255.5h621
q-3 94 -33 171t-97.5 129t-164.5 52z" />
    <glyph glyph-name="ccedilla" unicode="&#xe7;" horiz-adv-x="897" 
d="M401 -348h-59l113 254h59zM86 455q0 213 107.5 342t285.5 129q133 0 220 -74t116 -199h-67q-24 100 -94 157.5t-175 57.5q-147 0 -238 -113t-91 -300t91 -300.5t238 -113.5q105 0 175 57.5t94 157.5h67q-29 -125 -116 -198.5t-220 -73.5q-178 0 -285.5 129t-107.5 342z
" />
    <glyph glyph-name="egrave" unicode="&#xe8;" horiz-adv-x="919" 
d="M516 1071h-67l-175 260h68zM756 256h63q-28 -124 -118 -198t-222 -74q-175 0 -284 129.5t-109 341.5q0 207 105 339t286 132q173 0 267 -122t94 -321v-22h-688q0 -191 91.5 -305.5t237.5 -114.5q105 0 179.5 58t97.5 157zM477 868q-136 0 -223.5 -96.5t-101.5 -255.5h620
q-3 94 -33 171t-97.5 129t-164.5 52z" />
    <glyph glyph-name="eacute" unicode="&#xe9;" horiz-adv-x="919" 
d="M506 1071h-68l174 260h68zM756 256h63q-28 -124 -118 -198t-222 -74q-175 0 -284 129.5t-109 341.5q0 207 105 339t286 132q173 0 267 -122t94 -321v-22h-688q0 -191 91.5 -305.5t237.5 -114.5q105 0 179.5 58t97.5 157zM477 868q-136 0 -223.5 -96.5t-101.5 -255.5h620
q-3 94 -33 171t-97.5 129t-164.5 52z" />
    <glyph glyph-name="ecircumflex" unicode="&#xea;" horiz-adv-x="919" 
d="M508 1317l186 -260h-63l-150 211l-149 -211h-64l187 260h53zM756 256h63q-28 -124 -118 -198t-222 -74q-175 0 -284 129.5t-109 341.5q0 207 105 339t286 132q173 0 267 -122t94 -321v-22h-688q0 -191 91.5 -305.5t237.5 -114.5q105 0 179.5 58t97.5 157zM477 868
q-136 0 -223.5 -96.5t-101.5 -255.5h620q-3 94 -33 171t-97.5 129t-164.5 52z" />
    <glyph glyph-name="edieresis" unicode="&#xeb;" horiz-adv-x="919" 
d="M317 1167q0 20 14 33.5t34 13.5t33.5 -13.5t13.5 -33.5t-13.5 -33.5t-33.5 -13.5t-34 13.5t-14 33.5zM551 1167q0 20 13.5 33.5t33.5 13.5t33.5 -13.5t13.5 -33.5t-13.5 -33.5t-33.5 -13.5t-33.5 13.5t-13.5 33.5zM756 256h63q-28 -124 -118 -198t-222 -74
q-175 0 -284 129.5t-109 341.5q0 207 105 339t286 132q173 0 267 -122t94 -321v-22h-688q0 -191 91.5 -305.5t237.5 -114.5q105 0 179.5 58t97.5 157zM477 868q-136 0 -223.5 -96.5t-101.5 -255.5h620q-3 94 -33 171t-97.5 129t-164.5 52z" />
    <glyph glyph-name="igrave" unicode="&#xec;" horiz-adv-x="368" 
d="M215 909v-909h-61v909h61zM219 1071h-67l-175 260h68z" />
    <glyph glyph-name="iacute" unicode="&#xed;" horiz-adv-x="368" 
d="M215 909v-909h-61v909h61zM209 1071h-68l174 260h68z" />
    <glyph glyph-name="icircumflex" unicode="&#xee;" horiz-adv-x="368" 
d="M211 1317l145 -260h-61l-111 205l-110 -205h-62l146 260h53zM215 909v-909h-61v909h61z" />
    <glyph glyph-name="idieresis" unicode="&#xef;" horiz-adv-x="368" 
d="M41 1167q0 20 13.5 33.5t33.5 13.5t33.5 -13.5t13.5 -33.5t-13.5 -33.5t-33.5 -13.5t-33.5 13.5t-13.5 33.5zM233 1167q0 20 14 33.5t34 13.5t33.5 -13.5t13.5 -33.5t-13.5 -33.5t-33.5 -13.5t-34 13.5t-14 33.5zM215 909v-909h-61v909h61z" />
    <glyph glyph-name="eth" unicode="&#xf0;" horiz-adv-x="954" 
d="M281 1036l-19 49l227 74q-90 90 -196 164v8h76q102 -73 180 -151l160 53l16 -49l-137 -45q132 -146 206 -321.5t74 -362.5q0 -211 -107 -341t-284 -130t-284 130t-107 341t107 341t284 130q161 0 271 -140h4q-81 182 -224 332zM805 455q0 187 -90.5 300t-237.5 113
t-237 -113t-90 -300t90 -300.5t237 -113.5t237.5 113.5t90.5 300.5z" />
    <glyph glyph-name="ntilde" unicode="&#xf1;" horiz-adv-x="980" 
d="M154 0v909h61v-168q46 79 128.5 132t180.5 53q152 0 233 -87t81 -233v-606h-62v598q0 122 -64 195t-192 73q-99 0 -181 -61.5t-124 -153.5v-651h-61zM686 1268h53q0 -91 -33.5 -143t-95.5 -52q-37 0 -70.5 22.5t-54.5 49.5t-48 49.5t-52 22.5q-37 0 -57.5 -37.5
t-20.5 -100.5h-53q0 90 33.5 142.5t95.5 52.5q37 0 70 -22.5t54 -49.5t48 -49.5t53 -22.5q37 0 57.5 37.5t20.5 100.5z" />
    <glyph glyph-name="ograve" unicode="&#xf2;" horiz-adv-x="954" 
d="M868 455q0 -211 -107 -341t-284 -130t-284 130t-107 341t107 341t284 130t284 -130t107 -341zM805 455q0 187 -90.5 300t-237.5 113t-237 -113t-90 -300t90 -300.5t237 -113.5t237.5 113.5t90.5 300.5zM512 1071h-68l-174 260h68z" />
    <glyph glyph-name="oacute" unicode="&#xf3;" horiz-adv-x="954" 
d="M868 455q0 -211 -107 -341t-284 -130t-284 130t-107 341t107 341t284 130t284 -130t107 -341zM805 455q0 187 -90.5 300t-237.5 113t-237 -113t-90 -300t90 -300.5t237 -113.5t237.5 113.5t90.5 300.5zM502 1071h-68l174 260h68z" />
    <glyph glyph-name="ocircumflex" unicode="&#xf4;" horiz-adv-x="954" 
d="M868 455q0 -211 -107 -341t-284 -130t-284 130t-107 341t107 341t284 130t284 -130t107 -341zM805 455q0 187 -90.5 300t-237.5 113t-237 -113t-90 -300t90 -300.5t237 -113.5t237.5 113.5t90.5 300.5zM504 1317l186 -260h-63l-150 211l-149 -211h-64l187 260h53z" />
    <glyph glyph-name="otilde" unicode="&#xf5;" horiz-adv-x="954" 
d="M868 455q0 -211 -107 -341t-284 -130t-284 130t-107 341t107 341t284 130t284 -130t107 -341zM805 455q0 187 -90.5 300t-237.5 113t-237 -113t-90 -300t90 -300.5t237 -113.5t237.5 113.5t90.5 300.5zM668 1268h53q0 -91 -33.5 -143t-95.5 -52q-37 0 -70.5 22.5
t-54.5 49.5t-48 49.5t-52 22.5q-37 0 -57.5 -37.5t-20.5 -100.5h-53q0 90 33.5 142.5t95.5 52.5q37 0 70 -22.5t54 -49.5t48 -49.5t53 -22.5q37 0 57.5 37.5t20.5 100.5z" />
    <glyph glyph-name="odieresis" unicode="&#xf6;" horiz-adv-x="954" 
d="M868 455q0 -211 -107 -341t-284 -130t-284 130t-107 341t107 341t284 130t284 -130t107 -341zM805 455q0 187 -90.5 300t-237.5 113t-237 -113t-90 -300t90 -300.5t237 -113.5t237.5 113.5t90.5 300.5zM313 1167q0 20 13.5 33.5t33.5 13.5t34 -13.5t14 -33.5t-14 -33.5
t-34 -13.5t-33.5 13.5t-13.5 33.5zM547 1167q0 20 13.5 33.5t33.5 13.5t33.5 -13.5t13.5 -33.5t-13.5 -33.5t-33.5 -13.5t-33.5 13.5t-13.5 33.5z" />
    <glyph glyph-name="divide" unicode="&#xf7;" horiz-adv-x="1013" 
d="M143 569v60h727v-60h-727zM453 901q0 23 15.5 39t37.5 16t37.5 -16t15.5 -39t-15.5 -39t-37.5 -16t-37.5 16t-15.5 39zM453 299q0 23 15.5 39t37.5 16t37.5 -16t15.5 -39t-15.5 -39t-37.5 -16t-37.5 16t-15.5 39z" />
    <glyph glyph-name="oslash" unicode="&#xf8;" horiz-adv-x="974" 
d="M94 -4l101 129q-99 129 -99 330q0 211 107 341t284 130q153 0 256 -103l88 113l43 -31l-96 -121q101 -131 101 -329q0 -211 -107.5 -341t-284.5 -130q-150 0 -258 100l-92 -119zM160 455q0 -172 73 -281l474 602q-86 92 -220 92q-147 0 -237 -113t-90 -300zM815 455
q0 169 -76 278l-471 -602q87 -90 219 -90q147 0 237.5 113.5t90.5 300.5z" />
    <glyph glyph-name="ugrave" unicode="&#xf9;" horiz-adv-x="976" 
d="M823 909v-909h-61v168q-46 -79 -127 -131.5t-178 -52.5q-152 0 -233 86.5t-81 232.5v606h62v-598q0 -122 64 -195t192 -73q99 0 178.5 61t122.5 154v651h61zM518 1071h-67l-175 260h68z" />
    <glyph glyph-name="uacute" unicode="&#xfa;" horiz-adv-x="976" 
d="M823 909v-909h-61v168q-46 -79 -127 -131.5t-178 -52.5q-152 0 -233 86.5t-81 232.5v606h62v-598q0 -122 64 -195t192 -73q99 0 178.5 61t122.5 154v651h61zM508 1071h-68l174 260h68z" />
    <glyph glyph-name="ucircumflex" unicode="&#xfb;" horiz-adv-x="976" 
d="M823 909v-909h-61v168q-46 -79 -127 -131.5t-178 -52.5q-152 0 -233 86.5t-81 232.5v606h62v-598q0 -122 64 -195t192 -73q99 0 178.5 61t122.5 154v651h61zM510 1317l186 -260h-63l-150 211l-149 -211h-64l187 260h53z" />
    <glyph glyph-name="udieresis" unicode="&#xfc;" horiz-adv-x="976" 
d="M823 909v-909h-61v168q-46 -79 -127 -131.5t-178 -52.5q-152 0 -233 86.5t-81 232.5v606h62v-598q0 -122 64 -195t192 -73q99 0 178.5 61t122.5 154v651h61zM319 1167q0 20 14 33.5t34 13.5t33.5 -13.5t13.5 -33.5t-13.5 -33.5t-33.5 -13.5t-34 13.5t-14 33.5zM553 1167
q0 20 13.5 33.5t33.5 13.5t33.5 -13.5t13.5 -33.5t-13.5 -33.5t-33.5 -13.5t-33.5 13.5t-13.5 33.5z" />
    <glyph glyph-name="yacute" unicode="&#xfd;" horiz-adv-x="851" 
d="M305 -348h-63l153 375l-358 882h67l322 -807l324 807h65zM451 1071h-68l174 260h68z" />
    <glyph glyph-name="thorn" unicode="&#xfe;" horiz-adv-x="991" 
d="M215 158v-506h-61v1679h61v-579q45 73 126 123.5t177 50.5q97 0 173 -38.5t121.5 -104.5t69 -149.5t23.5 -178.5t-23.5 -178.5t-69 -149.5t-121.5 -104.5t-173 -38.5q-96 0 -177 50.5t-126 123.5zM215 664v-418q53 -99 132 -151t171 -52q151 0 237.5 114t86.5 298
t-86.5 297.5t-237.5 113.5q-92 0 -171 -51.5t-132 -150.5z" />
    <glyph glyph-name="ydieresis" unicode="&#xff;" horiz-adv-x="851" 
d="M305 -348h-63l153 375l-358 882h67l322 -807l324 807h65zM262 1167q0 20 13.5 33.5t33.5 13.5t33.5 -13.5t13.5 -33.5t-13.5 -33.5t-33.5 -13.5t-33.5 13.5t-13.5 33.5zM496 1167q0 20 13.5 33.5t33.5 13.5t33.5 -13.5t13.5 -33.5t-13.5 -33.5t-33.5 -13.5t-33.5 13.5
t-13.5 33.5z" />
    <glyph glyph-name="Amacron" unicode="&#x100;" horiz-adv-x="1161" 
d="M553 1257h55l504 -1257h-63l-177 438h-585l-174 -438h-64zM580 1169l-269 -669h537zM383 1372v55h395v-55h-395z" />
    <glyph glyph-name="amacron" unicode="&#x101;" horiz-adv-x="882" 
d="M250 1110v55h395v-55h-395zM739 0h-61v98q-37 -43 -109 -77.5t-153 -34.5q-142 0 -238 75.5t-96 198.5t96 199t238 76q81 0 153 -34.5t109 -78.5v194q0 116 -65.5 184t-182.5 68q-190 0 -246 -178h-63q27 113 110 174.5t199 61.5q142 0 225.5 -82.5t83.5 -220.5v-623z
M678 195v131q-23 65 -97.5 108t-164.5 43q-114 0 -193.5 -57.5t-79.5 -159.5t79.5 -159.5t193.5 -57.5q90 0 164.5 43.5t97.5 108.5z" />
    <glyph glyph-name="Abreve" unicode="&#x102;" horiz-adv-x="1161" 
d="M553 1257h55l504 -1257h-63l-177 438h-585l-174 -438h-64zM580 1169l-269 -669h537zM580 1358q-85 0 -138 61t-53 172h55q0 -86 38 -134t98 -48t97.5 48t37.5 134h55q0 -111 -52.5 -172t-137.5 -61z" />
    <glyph glyph-name="abreve" unicode="&#x103;" horiz-adv-x="882" 
d="M444 1044q-84 0 -137 61.5t-53 172.5h55q0 -86 37.5 -134t97.5 -48t98 48t38 134h55q0 -111 -53 -172.5t-138 -61.5zM739 0h-61v98q-37 -43 -109 -77.5t-153 -34.5q-142 0 -238 75.5t-96 198.5t96 199t238 76q81 0 153 -34.5t109 -78.5v194q0 116 -65.5 184t-182.5 68
q-190 0 -246 -178h-63q27 113 110 174.5t199 61.5q142 0 225.5 -82.5t83.5 -220.5v-623zM678 195v131q-23 65 -97.5 108t-164.5 43q-114 0 -193.5 -57.5t-79.5 -159.5t79.5 -159.5t193.5 -57.5q90 0 164.5 43.5t97.5 108.5z" />
    <glyph glyph-name="Aogonek" unicode="&#x104;" horiz-adv-x="1161" 
d="M553 1257h55l504 -1257q-65 -114 -84.5 -163t-19.5 -91q0 -31 14.5 -47t38.5 -16q37 0 76 28v-51q-38 -27 -80 -27q-45 0 -75 28.5t-30 84.5q0 43 21 93.5t82 160.5h-6l-177 438h-585l-174 -438h-64zM580 1169l-269 -669h537z" />
    <glyph glyph-name="aogonek" unicode="&#x105;" horiz-adv-x="882" 
d="M678 195v131q-23 65 -97.5 108t-164.5 43q-114 0 -193.5 -57.5t-79.5 -159.5t79.5 -159.5t193.5 -57.5q90 0 164.5 43.5t97.5 108.5zM682 0h-4v98q-37 -43 -109 -77.5t-153 -34.5q-142 0 -238 75.5t-96 198.5t96 199t238 76q81 0 153 -34.5t109 -78.5v194
q0 116 -65.5 184t-182.5 68q-190 0 -246 -178h-63q27 113 110 174.5t199 61.5q142 0 225.5 -82.5t83.5 -220.5v-623q-62 -110 -82 -161t-20 -93q0 -31 14.5 -47t38.5 -16q37 0 76 28v-51q-38 -27 -80 -27q-45 0 -74.5 28t-29.5 85q0 44 21.5 98t78.5 156z" />
    <glyph glyph-name="Cacute" unicode="&#x106;" horiz-adv-x="1159" 
d="M662 1358h-68l174 239h68zM82 629q0 147 43 269.5t117 204t173.5 126.5t213.5 45q168 0 287 -92t161 -246h-63q-42 129 -143 202.5t-242 73.5q-211 0 -346.5 -157.5t-135.5 -425.5t136 -426t346 -158q141 0 242 74t143 203h63q-42 -154 -161 -246t-287 -92
q-114 0 -213.5 45t-173.5 126.5t-117 204t-43 269.5z" />
    <glyph glyph-name="cacute" unicode="&#x107;" horiz-adv-x="897" 
d="M508 1071h-68l174 260h68zM86 455q0 213 107.5 342t285.5 129q133 0 220 -74t116 -199h-67q-24 100 -94 157.5t-175 57.5q-147 0 -238 -113t-91 -300t91 -300.5t238 -113.5q105 0 175 57.5t94 157.5h67q-29 -125 -116 -198.5t-220 -73.5q-178 0 -285.5 129t-107.5 342z
" />
    <glyph glyph-name="Ccircumflex" unicode="&#x108;" horiz-adv-x="1159" 
d="M664 1604l186 -240h-64l-149 188l-150 -188h-63l186 240h54zM82 629q0 147 43 269.5t117 204t173.5 126.5t213.5 45q168 0 287 -92t161 -246h-63q-42 129 -143 202.5t-242 73.5q-211 0 -346.5 -157.5t-135.5 -425.5t136 -426t346 -158q141 0 242 74t143 203h63
q-42 -154 -161 -246t-287 -92q-114 0 -213.5 45t-173.5 126.5t-117 204t-43 269.5z" />
    <glyph glyph-name="ccircumflex" unicode="&#x109;" horiz-adv-x="897" 
d="M510 1317l186 -260h-63l-150 211l-149 -211h-64l187 260h53zM86 455q0 213 107.5 342t285.5 129q133 0 220 -74t116 -199h-67q-24 100 -94 157.5t-175 57.5q-147 0 -238 -113t-91 -300t91 -300.5t238 -113.5q105 0 175 57.5t94 157.5h67q-29 -125 -116 -198.5t-220 -73.5
q-178 0 -285.5 129t-107.5 342z" />
    <glyph glyph-name="Cdotaccent" unicode="&#x10a;" horiz-adv-x="1159" 
d="M684 1452q0 -21 -13 -35t-34 -14t-34 14t-13 35t13 35t34 14t34 -14t13 -35zM82 629q0 147 43 269.5t117 204t173.5 126.5t213.5 45q168 0 287 -92t161 -246h-63q-42 129 -143 202.5t-242 73.5q-211 0 -346.5 -157.5t-135.5 -425.5t136 -426t346 -158q141 0 242 74
t143 203h63q-42 -154 -161 -246t-287 -92q-114 0 -213.5 45t-173.5 126.5t-117 204t-43 269.5z" />
    <glyph glyph-name="cdotaccent" unicode="&#x10b;" horiz-adv-x="897" 
d="M530 1186q0 -21 -13 -35t-34 -14t-34 14t-13 35t13 35t34 14t34 -14t13 -35zM86 455q0 213 107.5 342t285.5 129q133 0 220 -74t116 -199h-67q-24 100 -94 157.5t-175 57.5q-147 0 -238 -113t-91 -300t91 -300.5t238 -113.5q105 0 175 57.5t94 157.5h67
q-29 -125 -116 -198.5t-220 -73.5q-178 0 -285.5 129t-107.5 342z" />
    <glyph glyph-name="Ccaron" unicode="&#x10c;" horiz-adv-x="1159" 
d="M610 1343l-186 240h63l150 -188l149 188h64l-186 -240h-54zM82 629q0 147 43 269.5t117 204t173.5 126.5t213.5 45q168 0 287 -92t161 -246h-63q-42 129 -143 202.5t-242 73.5q-211 0 -346.5 -157.5t-135.5 -425.5t136 -426t346 -158q141 0 242 74t143 203h63
q-42 -154 -161 -246t-287 -92q-114 0 -213.5 45t-173.5 126.5t-117 204t-43 269.5z" />
    <glyph glyph-name="ccaron" unicode="&#x10d;" horiz-adv-x="897" 
d="M696 1321l-186 -260h-53l-187 260h64l149 -209l150 209h63zM86 455q0 213 107.5 342t285.5 129q133 0 220 -74t116 -199h-67q-24 100 -94 157.5t-175 57.5q-147 0 -238 -113t-91 -300t91 -300.5t238 -113.5q105 0 175 57.5t94 157.5h67q-29 -125 -116 -198.5t-220 -73.5
q-178 0 -285.5 129t-107.5 342z" />
    <glyph glyph-name="Dcaron" unicode="&#x10e;" horiz-adv-x="1228" 
d="M233 61h308q244 0 392 155.5t148 412.5t-148 412t-392 155h-308v-1135zM170 0v1257h367q273 0 441.5 -171.5t168.5 -456.5q0 -286 -168.5 -457.5t-441.5 -171.5h-367zM537 1343l-187 240h64l149 -188l150 188h63l-186 -240h-53z" />
    <glyph glyph-name="dcaron" unicode="&#x10f;" horiz-adv-x="991" 
d="M776 0v158q-45 -73 -126 -123.5t-177 -50.5q-97 0 -173 38.5t-121.5 104.5t-69 149.5t-23.5 178.5t23.5 178.5t69 149.5t121.5 104.5t173 38.5q96 0 177 -50.5t126 -123.5v579h62v-1331h-62zM776 246v418q-53 99 -132 150.5t-171 51.5q-151 0 -237 -113.5t-86 -297.5
t86 -298t237 -114q92 0 171 52t132 151zM1014 1010h-53l65 321h53z" />
    <glyph glyph-name="Dcroat" unicode="&#x110;" horiz-adv-x="1253" 
d="M72 623v57h123v577h366q273 0 441.5 -171.5t168.5 -456.5q0 -286 -168.5 -457.5t-441.5 -171.5h-366v623h-123zM258 61h307q244 0 392.5 155.5t148.5 412.5q0 256 -148 411.5t-393 155.5h-307v-516h277v-57h-277v-562z" />
    <glyph glyph-name="dcroat" unicode="&#x111;" horiz-adv-x="991" 
d="M528 1079v51h248v201h62v-201h102v-51h-102v-1079h-62v158q-45 -73 -126 -123.5t-177 -50.5q-97 0 -173 38.5t-121.5 104.5t-69 149.5t-23.5 178.5t23.5 178.5t69 149.5t121.5 104.5t173 38.5q96 0 177 -50.5t126 -123.5v327h-248zM776 246v418q-53 99 -132 150.5
t-171 51.5q-151 0 -237 -113.5t-86 -297.5t86 -298t237 -114q92 0 171 52t132 151z" />
    <glyph glyph-name="Emacron" unicode="&#x112;" horiz-adv-x="1056" 
d="M170 1257h764v-61h-701v-516h635v-62h-635v-557h701v-61h-764v1257zM367 1372v55h395v-55h-395z" />
    <glyph glyph-name="emacron" unicode="&#x113;" horiz-adv-x="919" 
d="M285 1110v55h395v-55h-395zM756 256h63q-28 -124 -118 -198t-222 -74q-175 0 -284 129.5t-109 341.5q0 207 105 339t286 132q173 0 267 -122t94 -321v-22h-688q0 -191 91.5 -305.5t237.5 -114.5q105 0 179.5 58t97.5 157zM477 868q-136 0 -223.5 -96.5t-101.5 -255.5h620
q-3 94 -33 171t-97.5 129t-164.5 52z" />
    <glyph glyph-name="Ebreve" unicode="&#x114;" horiz-adv-x="1056" 
d="M170 1257h764v-61h-701v-516h635v-62h-635v-557h701v-61h-764v1257zM563 1358q-85 0 -137.5 61t-52.5 172h55q0 -86 37.5 -134t97.5 -48t97.5 48t37.5 134h56q0 -111 -53 -172t-138 -61z" />
    <glyph glyph-name="ebreve" unicode="&#x115;" horiz-adv-x="919" 
d="M481 1044q-84 0 -137 61.5t-53 172.5h55q0 -86 37.5 -134t97.5 -48t97.5 48t37.5 134h56q0 -111 -53 -172.5t-138 -61.5zM756 256h63q-28 -124 -118 -198t-222 -74q-175 0 -284 129.5t-109 341.5q0 207 105 339t286 132q173 0 267 -122t94 -321v-22h-688
q0 -191 91.5 -305.5t237.5 -114.5q105 0 179.5 58t97.5 157zM477 868q-136 0 -223.5 -96.5t-101.5 -255.5h620q-3 94 -33 171t-97.5 129t-164.5 52z" />
    <glyph glyph-name="Edotaccent" unicode="&#x116;" horiz-adv-x="1056" 
d="M170 1257h764v-61h-701v-516h635v-62h-635v-557h701v-61h-764v1257zM610 1452q0 -21 -13 -35t-34 -14t-34 14t-13 35t13 35t34 14t34 -14t13 -35z" />
    <glyph glyph-name="edotaccent" unicode="&#x117;" horiz-adv-x="919" 
d="M528 1186q0 -21 -13 -35t-34 -14t-34 14t-13 35t13 35t34 14t34 -14t13 -35zM756 256h63q-28 -124 -118 -198t-222 -74q-175 0 -284 129.5t-109 341.5q0 207 105 339t286 132q173 0 267 -122t94 -321v-22h-688q0 -191 91.5 -305.5t237.5 -114.5q105 0 179.5 58t97.5 157z
M477 868q-136 0 -223.5 -96.5t-101.5 -255.5h620q-3 94 -33 171t-97.5 129t-164.5 52z" />
    <glyph glyph-name="Eogonek" unicode="&#x118;" horiz-adv-x="1056" 
d="M170 1257h764v-61h-701v-516h635v-62h-635v-557h701v-61h-68q-62 -108 -82 -159.5t-20 -94.5q0 -31 14.5 -47t38.5 -16q37 0 76 28v-51q-38 -27 -80 -27q-45 0 -74.5 28t-29.5 85q0 44 21.5 98t78.5 156h-639v1257z" />
    <glyph glyph-name="eogonek" unicode="&#x119;" horiz-adv-x="919" 
d="M477 868q-136 0 -223.5 -96.5t-101.5 -255.5h620q-3 94 -33 171t-97.5 129t-164.5 52zM616 14q-62 -30 -137 -30q-175 0 -284 129.5t-109 341.5q0 207 105 339t286 132q173 0 267 -122t94 -321v-22h-688q0 -191 91.5 -305.5t237.5 -114.5q105 0 179.5 58t97.5 157h63
q-13 -59 -40.5 -105t-82.5 -106q-83 -92 -123.5 -157t-40.5 -128q0 -77 56 -77q37 0 76 28v-51q-38 -27 -80 -27q-44 0 -75.5 31t-31.5 86q0 61 34.5 123.5t104.5 140.5z" />
    <glyph glyph-name="Ecaron" unicode="&#x11a;" horiz-adv-x="1056" 
d="M170 1257h764v-61h-701v-516h635v-62h-635v-557h701v-61h-764v1257zM537 1343l-187 240h64l149 -188l150 188h63l-186 -240h-53z" />
    <glyph glyph-name="ecaron" unicode="&#x11b;" horiz-adv-x="919" 
d="M694 1321l-186 -260h-53l-187 260h64l149 -209l150 209h63zM756 256h63q-28 -124 -118 -198t-222 -74q-175 0 -284 129.5t-109 341.5q0 207 105 339t286 132q173 0 267 -122t94 -321v-22h-688q0 -191 91.5 -305.5t237.5 -114.5q105 0 179.5 58t97.5 157zM477 868
q-136 0 -223.5 -96.5t-101.5 -255.5h620q-3 94 -33 171t-97.5 129t-164.5 52z" />
    <glyph glyph-name="Gcircumflex" unicode="&#x11c;" horiz-adv-x="1208" 
d="M672 1604l186 -240h-63l-150 188l-149 -188h-64l186 240h54zM1065 510h-348v57h409v-63q0 -237 -132 -378.5t-359 -141.5q-115 0 -216 44.5t-176 126t-118 204t-43 270.5t43.5 270.5t119 204t176.5 126t216 44.5q171 0 293 -92t164 -246h-66q-42 129 -143.5 202.5
t-247.5 73.5q-215 0 -352.5 -157t-137.5 -426t137 -426.5t351 -157.5q204 0 316.5 120.5t113.5 344.5z" />
    <glyph glyph-name="gcircumflex" unicode="&#x11d;" horiz-adv-x="980" 
d="M524 1317l187 -260h-64l-149 211l-150 -211h-63l186 260h53zM766 59v117q-45 -72 -125 -122t-174 -50q-96 0 -170.5 37.5t-119.5 102t-68 146t-23 175.5t23 175.5t68 146t119.5 102t170.5 37.5q94 0 174 -50t125 -122v155h61v-848q0 -206 -97.5 -317t-266.5 -111
q-148 0 -240.5 69.5t-120.5 193.5h66q26 -102 103 -153.5t192 -51.5q144 0 223.5 94.5t79.5 273.5zM766 266v398q-52 97 -130.5 149.5t-168.5 52.5q-148 0 -232.5 -110.5t-84.5 -290.5t84.5 -291t232.5 -111q90 0 168.5 53t130.5 150z" />
    <glyph glyph-name="Gbreve" unicode="&#x11e;" horiz-adv-x="1208" 
d="M645 1358q-85 0 -137.5 61t-52.5 172h55q0 -86 37.5 -134t97.5 -48t97.5 48t37.5 134h56q0 -111 -53 -172t-138 -61zM1065 510h-348v57h409v-63q0 -237 -132 -378.5t-359 -141.5q-115 0 -216 44.5t-176 126t-118 204t-43 270.5t43.5 270.5t119 204t176.5 126t216 44.5
q171 0 293 -92t164 -246h-66q-42 129 -143.5 202.5t-247.5 73.5q-215 0 -352.5 -157t-137.5 -426t137 -426.5t351 -157.5q204 0 316.5 120.5t113.5 344.5z" />
    <glyph glyph-name="gbreve" unicode="&#x11f;" horiz-adv-x="980" 
d="M498 1044q-85 0 -138 61.5t-53 172.5h55q0 -86 38 -134t98 -48t97.5 48t37.5 134h55q0 -111 -53 -172.5t-137 -61.5zM766 59v117q-45 -72 -125 -122t-174 -50q-96 0 -170.5 37.5t-119.5 102t-68 146t-23 175.5t23 175.5t68 146t119.5 102t170.5 37.5q94 0 174 -50
t125 -122v155h61v-848q0 -206 -97.5 -317t-266.5 -111q-148 0 -240.5 69.5t-120.5 193.5h66q26 -102 103 -153.5t192 -51.5q144 0 223.5 94.5t79.5 273.5zM766 266v398q-52 97 -130.5 149.5t-168.5 52.5q-148 0 -232.5 -110.5t-84.5 -290.5t84.5 -291t232.5 -111
q90 0 168.5 53t130.5 150z" />
    <glyph glyph-name="Gdotaccent" unicode="&#x120;" horiz-adv-x="1208" 
d="M692 1452q0 -21 -13 -35t-34 -14t-34 14t-13 35t13 35t34 14t34 -14t13 -35zM1065 510h-348v57h409v-63q0 -237 -132 -378.5t-359 -141.5q-115 0 -216 44.5t-176 126t-118 204t-43 270.5t43.5 270.5t119 204t176.5 126t216 44.5q171 0 293 -92t164 -246h-66
q-42 129 -143.5 202.5t-247.5 73.5q-215 0 -352.5 -157t-137.5 -426t137 -426.5t351 -157.5q204 0 316.5 120.5t113.5 344.5z" />
    <glyph glyph-name="gdotaccent" unicode="&#x121;" horiz-adv-x="980" 
d="M545 1186q0 -21 -13 -35t-34 -14t-34 14t-13 35t13 35t34 14t34 -14t13 -35zM766 59v117q-45 -72 -125 -122t-174 -50q-96 0 -170.5 37.5t-119.5 102t-68 146t-23 175.5t23 175.5t68 146t119.5 102t170.5 37.5q94 0 174 -50t125 -122v155h61v-848q0 -206 -97.5 -317
t-266.5 -111q-148 0 -240.5 69.5t-120.5 193.5h66q26 -102 103 -153.5t192 -51.5q144 0 223.5 94.5t79.5 273.5zM766 266v398q-52 97 -130.5 149.5t-168.5 52.5q-148 0 -232.5 -110.5t-84.5 -290.5t84.5 -291t232.5 -111q90 0 168.5 53t130.5 150z" />
    <glyph glyph-name="Gcommaaccent" unicode="&#x122;" horiz-adv-x="1208" 
d="M580 -348l69 143q-19 3 -31 16t-12 35q0 24 15 40t38 16t38.5 -16.5t15.5 -39.5t-19 -61l-65 -133h-49zM1065 510h-348v57h409v-63q0 -237 -132 -378.5t-359 -141.5q-115 0 -216 44.5t-176 126t-118 204t-43 270.5t43.5 270.5t119 204t176.5 126t216 44.5q171 0 293 -92
t164 -246h-66q-42 129 -143.5 202.5t-247.5 73.5q-215 0 -352.5 -157t-137.5 -426t137 -426.5t351 -157.5q204 0 316.5 120.5t113.5 344.5z" />
    <glyph glyph-name="gcommaaccent" unicode="&#x123;" horiz-adv-x="980" 
d="M565 1331l-69 -143q19 -3 31 -16t12 -35q0 -23 -15.5 -39.5t-38.5 -16.5t-38 16t-15 40q0 23 19 61l65 133h49zM766 59v117q-45 -72 -125 -122t-174 -50q-96 0 -170.5 37.5t-119.5 102t-68 146t-23 175.5t23 175.5t68 146t119.5 102t170.5 37.5q94 0 174 -50t125 -122
v155h61v-848q0 -206 -97.5 -317t-266.5 -111q-148 0 -240.5 69.5t-120.5 193.5h66q26 -102 103 -153.5t192 -51.5q144 0 223.5 94.5t79.5 273.5zM766 266v398q-52 97 -130.5 149.5t-168.5 52.5q-148 0 -232.5 -110.5t-84.5 -290.5t84.5 -291t232.5 -111q90 0 168.5 53
t130.5 150z" />
    <glyph glyph-name="Hcircumflex" unicode="&#x124;" horiz-adv-x="1327" 
d="M1094 1257h63v-1257h-63v618h-861v-618h-63v1257h63v-577h861v577zM690 1604l187 -240h-64l-149 188l-150 -188h-63l186 240h53z" />
    <glyph glyph-name="hcircumflex" unicode="&#x125;" horiz-adv-x="980" 
d="M154 0v1331h61v-590q46 79 128.5 132t180.5 53q152 0 233 -87t81 -233v-606h-62v598q0 122 -64 195t-192 73q-99 0 -181 -61.5t-124 -153.5v-651h-61zM522 1604l187 -240h-64l-149 188l-150 -188h-63l186 240h53z" />
    <glyph glyph-name="Hbar" unicode="&#x126;" horiz-adv-x="1376" 
d="M72 909v58h123v290h63v-290h860v290h64v-290h123v-58h-123v-909h-64v557h-860v-557h-63v909h-123zM258 614h860v295h-860v-295z" />
    <glyph glyph-name="hbar" unicode="&#x127;" horiz-adv-x="980" 
d="M51 1079v51h103v201h61v-201h248v-51h-248v-338q46 79 128.5 132t180.5 53q152 0 233 -87t81 -233v-606h-62v598q0 122 -64 195t-192 73q-99 0 -181 -61.5t-124 -153.5v-651h-61v1079h-103z" />
    <glyph glyph-name="Itilde" unicode="&#x128;" horiz-adv-x="403" 
d="M233 1257v-1257h-63v1257h63zM391 1554h53q0 -91 -33.5 -142.5t-95.5 -51.5q-37 0 -70.5 22.5t-54.5 49t-48 49t-52 22.5q-37 0 -57.5 -37t-20.5 -100h-53q0 90 33.5 142.5t95.5 52.5q37 0 70 -22.5t54 -49.5t48 -49.5t53 -22.5q37 0 57.5 37t20.5 100z" />
    <glyph glyph-name="itilde" unicode="&#x129;" horiz-adv-x="368" 
d="M322 1268h47q0 -90 -26 -142.5t-71 -52.5q-28 0 -55 22.5t-44 49.5t-37.5 49.5t-37.5 22.5q-51 0 -51 -138h-47q0 89 25.5 142t70.5 53q28 0 55 -22.5t44 -49.5t37.5 -49.5t37.5 -22.5q52 0 52 138zM215 909v-909h-61v909h61z" />
    <glyph glyph-name="Imacron" unicode="&#x12a;" horiz-adv-x="403" 
d="M233 1257v-1257h-63v1257h63zM4 1372v55h395v-55h-395z" />
    <glyph glyph-name="imacron" unicode="&#x12b;" horiz-adv-x="368" 
d="M215 909v-909h-61v909h61zM41 1110v55h293v-55h-293z" />
    <glyph glyph-name="Ibreve" unicode="&#x12c;" horiz-adv-x="403" 
d="M233 1257v-1257h-63v1257h63zM201 1358q-85 0 -138 61t-53 172h56q0 -86 37.5 -134t97.5 -48t97.5 48t37.5 134h55q0 -111 -52.5 -172t-137.5 -61z" />
    <glyph glyph-name="ibreve" unicode="&#x12d;" horiz-adv-x="368" 
d="M186 1044q-74 0 -121 61.5t-47 172.5h54q0 -86 31 -134t83 -48t83.5 48t31.5 134h53q0 -111 -47 -172.5t-121 -61.5zM215 909v-909h-61v909h61z" />
    <glyph glyph-name="Iogonek" unicode="&#x12e;" horiz-adv-x="403" 
d="M233 1257v-1257q-62 -110 -82 -161t-20 -93q0 -31 14.5 -47t38.5 -16q37 0 76 28v-51q-37 -27 -80 -27q-45 0 -74.5 28t-29.5 85q0 44 21.5 98t78.5 156h-6v1257h63z" />
    <glyph glyph-name="iogonek" unicode="&#x12f;" horiz-adv-x="368" 
d="M215 909v-909q-62 -110 -82 -161t-20 -93q0 -31 14.5 -47t38.5 -16q37 0 76 28v-51q-37 -27 -80 -27q-45 0 -75 28.5t-30 84.5q0 44 21.5 97.5t79.5 156.5h-4v909h61zM231 1186q0 -21 -13 -35t-34 -14t-34 14t-13 35t13 35t34 14t34 -14t13 -35z" />
    <glyph glyph-name="Idotaccent" unicode="&#x130;" horiz-adv-x="403" 
d="M233 1257v-1257h-63v1257h63zM248 1452q0 -21 -13 -35t-34 -14t-34 14t-13 35t13 35t34 14t34 -14t13 -35z" />
    <glyph glyph-name="dotlessi" unicode="&#x131;" horiz-adv-x="368" 
d="M215 909v-909h-61v909h61z" />
    <glyph glyph-name="IJ" unicode="&#x132;" horiz-adv-x="1304" 
d="M389 340h66q15 -135 101.5 -215t219.5 -80q67 0 123 19t101 58.5t70.5 107t25.5 157.5v870h63v-870q0 -101 -30.5 -180t-83.5 -126.5t-121.5 -72t-147.5 -24.5q-158 0 -266.5 96.5t-120.5 259.5zM233 1257v-1257h-63v1257h63z" />
    <glyph glyph-name="ij" unicode="&#x133;" horiz-adv-x="737" 
d="M215 909v-909h-61v909h61zM231 1186q0 -21 -13 -35t-34 -14t-34 14t-13 35t13 35t34 14t34 -14t13 -35zM584 909v-1059q0 -107 -54.5 -161t-148.5 -54q-15 0 -35 5v57q16 -4 35 -4q71 0 106 35.5t35 130.5v1050h62zM600 1186q0 -21 -13 -35t-34 -14t-34 14t-13 35t13 35
t34 14t34 -14t13 -35z" />
    <glyph glyph-name="Jcircumflex" unicode="&#x134;" horiz-adv-x="956" 
d="M41 340h65q15 -135 102 -215t220 -80q67 0 123 19t101 58.5t70.5 107t25.5 157.5v870h63v-870q0 -101 -30.5 -180t-83.5 -126.5t-121.5 -72t-147.5 -24.5q-158 0 -266.5 96.5t-120.5 259.5zM809 1604l186 -240h-63l-150 188l-149 -188h-64l187 240h53z" />
    <glyph glyph-name="jcircumflex" unicode="&#x135;" horiz-adv-x="368" 
d="M211 1317l145 -260h-61l-111 205l-110 -205h-62l146 260h53zM215 909v-1059q0 -107 -54.5 -161t-148.5 -54q-15 0 -35 5v57q16 -4 35 -4q71 0 106.5 35.5t35.5 130.5v1050h61z" />
    <glyph glyph-name="Kcommaaccent" unicode="&#x136;" horiz-adv-x="1085" 
d="M233 1257v-679l707 679h84l-598 -575l618 -682h-77l-586 639l-148 -141v-498h-63v1257h63zM432 -348l70 143q-19 3 -31 16t-12 35q0 24 15 40t38 16t38 -16t15 -40q0 -25 -18 -61l-66 -133h-49z" />
    <glyph glyph-name="kcommaaccent" unicode="&#x137;" horiz-adv-x="886" 
d="M768 0l-430 479l-123 -106v-373h-61v1331h61v-885l528 463h88l-448 -391l463 -518h-78zM346 -348l70 143q-19 3 -31 16t-12 35q0 24 15 40t38 16t38 -16t15 -40q0 -25 -18 -61l-66 -133h-49z" />
    <glyph glyph-name="kgreenlandic" unicode="&#x138;" horiz-adv-x="886" 
d="M768 0l-430 479l-123 -106v-373h-61v909h61v-463l528 463h88l-448 -391l463 -518h-78z" />
    <glyph glyph-name="Lacute" unicode="&#x139;" horiz-adv-x="1028" 
d="M170 0v1257h63v-1196h713v-61h-776zM250 1358h-68l174 239h68z" />
    <glyph glyph-name="lacute" unicode="&#x13a;" horiz-adv-x="368" 
d="M215 1331v-1331h-61v1331h61zM221 1399h-67l174 239h67z" />
    <glyph glyph-name="Lcommaaccent" unicode="&#x13b;" horiz-adv-x="1028" 
d="M170 0v1257h63v-1196h713v-61h-776zM492 -348l69 143q-19 3 -31 16t-12 35q0 24 15 40t38 16t38.5 -16.5t15.5 -39.5t-19 -61l-65 -133h-49z" />
    <glyph glyph-name="lcommaaccent" unicode="&#x13c;" horiz-adv-x="368" 
d="M215 1331v-1331h-61v1331h61zM104 -348l70 143q-19 3 -31 16t-12 35q0 24 15 40t38 16t38.5 -16.5t15.5 -39.5t-19 -61l-65 -133h-50z" />
    <glyph glyph-name="Lcaron" unicode="&#x13d;" horiz-adv-x="1028" 
d="M170 0v1257h63v-1196h713v-61h-776zM590 936h-53l65 321h53z" />
    <glyph glyph-name="lcaron" unicode="&#x13e;" horiz-adv-x="368" 
d="M215 1331v-1331h-61v1331h61zM393 1010h-53l66 321h53z" />
    <glyph glyph-name="Ldot" unicode="&#x13f;" horiz-adv-x="1028" 
d="M170 0v1257h63v-1196h713v-61h-776zM778 629q0 -21 -13 -35t-34 -14t-34 14t-13 35t13 35t34 14t34 -14t13 -35z" />
    <glyph glyph-name="ldot" unicode="&#x140;" horiz-adv-x="557" 
d="M215 1331v-1331h-61v1331h61zM510 666q0 -21 -13 -35.5t-34 -14.5t-34 14.5t-13 35.5t13 35t34 14t34 -14t13 -35z" />
    <glyph glyph-name="Lslash" unicode="&#x141;" horiz-adv-x="1042" 
d="M61 535v63l123 49v610h64v-585l325 129v-64l-325 -129v-547h713v-61h-777v584z" />
    <glyph glyph-name="lslash" unicode="&#x142;" horiz-adv-x="450" 
d="M256 1331v-510l143 105v-70l-143 -104v-752h-61v711l-134 -97v70l134 96v551h61z" />
    <glyph glyph-name="Nacute" unicode="&#x143;" horiz-adv-x="1251" 
d="M1081 1257v-1257h-34l-816 1157v-1157h-61v1257h61l789 -1114v1114h61zM649 1358h-67l174 239h67z" />
    <glyph glyph-name="nacute" unicode="&#x144;" horiz-adv-x="980" 
d="M154 0v909h61v-168q46 79 128.5 132t180.5 53q152 0 233 -87t81 -233v-606h-62v598q0 122 -64 195t-192 73q-99 0 -181 -61.5t-124 -153.5v-651h-61zM520 1071h-67l174 260h67z" />
    <glyph glyph-name="Ncommaaccent" unicode="&#x145;" horiz-adv-x="1251" 
d="M1081 1257v-1257h-34l-816 1157v-1157h-61v1257h61l789 -1114v1114h61zM559 -348l70 143q-19 3 -31 16t-12 35q0 24 15 40t38 16t38 -16t15 -40q0 -25 -18 -61l-66 -133h-49z" />
    <glyph glyph-name="ncommaaccent" unicode="&#x146;" horiz-adv-x="980" 
d="M154 0v909h61v-168q46 79 128.5 132t180.5 53q152 0 233 -87t81 -233v-606h-62v598q0 122 -64 195t-192 73q-99 0 -181 -61.5t-124 -153.5v-651h-61zM430 -348l70 143q-19 3 -31 16t-12 35q0 24 15 40t38 16t38 -16t15 -40q0 -25 -18 -61l-66 -133h-49z" />
    <glyph glyph-name="Ncaron" unicode="&#x147;" horiz-adv-x="1251" 
d="M1081 1257v-1257h-34l-816 1157v-1157h-61v1257h61l789 -1114v1114h61zM598 1343l-186 240h63l150 -188l149 188h64l-187 -240h-53z" />
    <glyph glyph-name="ncaron" unicode="&#x148;" horiz-adv-x="980" 
d="M154 0v909h61v-168q46 79 128.5 132t180.5 53q152 0 233 -87t81 -233v-606h-62v598q0 122 -64 195t-192 73q-99 0 -181 -61.5t-124 -153.5v-651h-61zM709 1321l-187 -260h-53l-186 260h63l150 -209l149 209h64z" />
    <glyph glyph-name="Eng" unicode="&#x14a;" horiz-adv-x="1251" 
d="M528 -289v70q58 -48 112.5 -68t119.5 -20q132 0 196 81.5t64 262.5l-789 1120v-1157h-61v1257h61l789 -1114v1114h61v-1222q0 -404 -321 -404q-136 0 -232 80z" />
    <glyph glyph-name="eng" unicode="&#x14b;" horiz-adv-x="980" 
d="M776 -141v739q0 122 -64 195t-192 73q-99 0 -181 -61.5t-124 -153.5v-651h-61v909h61v-168q46 79 128.5 132t180.5 53q152 0 233 -87t81 -233v-756q0 -107 -54.5 -161t-148.5 -54q-15 0 -35 5v57q16 -4 35 -4q71 0 106 35.5t35 130.5z" />
    <glyph glyph-name="Omacron" unicode="&#x14c;" horiz-adv-x="1257" 
d="M1176 629q0 -288 -154.5 -466.5t-392.5 -178.5q-116 0 -216.5 46.5t-173.5 129.5t-115 204.5t-42 264.5t42 264.5t115 204.5t173.5 129.5t216.5 46.5q238 0 392.5 -178.5t154.5 -466.5zM1110 629q0 259 -133.5 421t-347.5 162q-213 0 -347.5 -162t-134.5 -421
t134.5 -421.5t347.5 -162.5q214 0 347.5 162t133.5 422zM432 1372v55h395v-55h-395z" />
    <glyph glyph-name="omacron" unicode="&#x14d;" horiz-adv-x="954" 
d="M868 455q0 -211 -107 -341t-284 -130t-284 130t-107 341t107 341t284 130t284 -130t107 -341zM805 455q0 187 -90.5 300t-237.5 113t-237 -113t-90 -300t90 -300.5t237 -113.5t237.5 113.5t90.5 300.5zM281 1110v55h395v-55h-395z" />
    <glyph glyph-name="Obreve" unicode="&#x14e;" horiz-adv-x="1257" 
d="M1176 629q0 -288 -154.5 -466.5t-392.5 -178.5q-116 0 -216.5 46.5t-173.5 129.5t-115 204.5t-42 264.5t42 264.5t115 204.5t173.5 129.5t216.5 46.5q238 0 392.5 -178.5t154.5 -466.5zM1110 629q0 259 -133.5 421t-347.5 162q-213 0 -347.5 -162t-134.5 -421
t134.5 -421.5t347.5 -162.5q214 0 347.5 162t133.5 422zM629 1358q-85 0 -138 61t-53 172h56q0 -86 37.5 -134t97.5 -48t97.5 48t37.5 134h55q0 -111 -52.5 -172t-137.5 -61z" />
    <glyph glyph-name="obreve" unicode="&#x14f;" horiz-adv-x="954" 
d="M868 455q0 -211 -107 -341t-284 -130t-284 130t-107 341t107 341t284 130t284 -130t107 -341zM805 455q0 187 -90.5 300t-237.5 113t-237 -113t-90 -300t90 -300.5t237 -113.5t237.5 113.5t90.5 300.5zM477 1044q-84 0 -137 61.5t-53 172.5h55q0 -86 37.5 -134t97.5 -48
t97.5 48t37.5 134h56q0 -111 -53 -172.5t-138 -61.5z" />
    <glyph glyph-name="Ohungarumlaut" unicode="&#x150;" horiz-adv-x="1257" 
d="M1176 629q0 -288 -154.5 -466.5t-392.5 -178.5q-116 0 -216.5 46.5t-173.5 129.5t-115 204.5t-42 264.5t42 264.5t115 204.5t173.5 129.5t216.5 46.5q238 0 392.5 -178.5t154.5 -466.5zM1110 629q0 259 -133.5 421t-347.5 162q-213 0 -347.5 -162t-134.5 -421
t134.5 -421.5t347.5 -162.5q214 0 347.5 162t133.5 422zM557 1358h-63l161 239h64zM768 1358h-63l161 239h64z" />
    <glyph glyph-name="ohungarumlaut" unicode="&#x151;" horiz-adv-x="954" 
d="M868 455q0 -211 -107 -341t-284 -130t-284 130t-107 341t107 341t284 130t284 -130t107 -341zM805 455q0 187 -90.5 300t-237.5 113t-237 -113t-90 -300t90 -300.5t237 -113.5t237.5 113.5t90.5 300.5zM401 1071h-63l162 260h63zM612 1071h-63l162 260h63z" />
    <glyph glyph-name="OE" unicode="&#x152;" horiz-adv-x="1734" 
d="M1612 1257v-61h-680v-516h614v-62h-614v-557h680v-61h-920q-273 0 -441.5 171.5t-168.5 457.5q0 285 168.5 456.5t441.5 171.5h920zM688 61h180v1135h-180q-245 0 -393 -155.5t-148 -411.5q0 -257 148.5 -412.5t392.5 -155.5z" />
    <glyph glyph-name="oe" unicode="&#x153;" horiz-adv-x="1632" 
d="M1192 -16q-126 0 -219.5 70t-138.5 194q-45 -122 -139 -193t-218 -71q-177 0 -284 130t-107 341t107 341t284 130q125 0 219 -74t138 -199q43 126 134.5 199.5t221.5 73.5q173 0 266.5 -122t93.5 -321v-22h-688q0 -191 91.5 -305.5t238.5 -114.5q105 0 179 58t97 157h64
q-28 -124 -118 -198t-222 -74zM805 455q0 187 -90.5 300t-237.5 113t-237 -113t-90 -300t90 -300.5t237 -113.5t237.5 113.5t90.5 300.5zM1190 868q-136 0 -224 -96.5t-102 -255.5h621q-3 94 -33 171t-97.5 129t-164.5 52z" />
    <glyph glyph-name="Racute" unicode="&#x154;" horiz-adv-x="1120" 
d="M588 573h-355v-573h-63v1257h430q182 0 282.5 -88t100.5 -254q0 -152 -83.5 -238.5t-237.5 -101.5l385 -575h-74zM233 1196v-563h363q157 0 240.5 73t83.5 209q0 137 -83 209t-241 72h-363zM555 1358h-68l175 239h67z" />
    <glyph glyph-name="racute" unicode="&#x155;" horiz-adv-x="585" 
d="M549 915v-57q-33 10 -70 10q-87 0 -155.5 -59t-108.5 -156v-653h-61v909h61v-166q36 80 106 131.5t158 51.5q33 0 70 -11zM375 1071h-68l174 260h68z" />
    <glyph glyph-name="Rcommaaccent" unicode="&#x156;" horiz-adv-x="1120" 
d="M588 573h-355v-573h-63v1257h430q182 0 282.5 -88t100.5 -254q0 -152 -83.5 -238.5t-237.5 -101.5l385 -575h-74zM233 1196v-563h363q157 0 240.5 73t83.5 209q0 137 -83 209t-241 72h-363zM465 -348l70 143q-19 3 -31 16t-12 35q0 24 15 40t38 16t38 -16t15 -40
q0 -25 -18 -61l-66 -133h-49z" />
    <glyph glyph-name="rcommaaccent" unicode="&#x157;" horiz-adv-x="585" 
d="M549 915v-57q-33 10 -70 10q-87 0 -155.5 -59t-108.5 -156v-653h-61v909h61v-166q36 80 106 131.5t158 51.5q33 0 70 -11zM100 -348l70 143q-19 3 -31 16t-12 35q0 24 15 40t38 16t38 -16t15 -40q0 -25 -18 -61l-65 -133h-50z" />
    <glyph glyph-name="Rcaron" unicode="&#x158;" horiz-adv-x="1120" 
d="M588 573h-355v-573h-63v1257h430q182 0 282.5 -88t100.5 -254q0 -152 -83.5 -238.5t-237.5 -101.5l385 -575h-74zM233 1196v-563h363q157 0 240.5 73t83.5 209q0 137 -83 209t-241 72h-363zM504 1343l-187 240h64l149 -188l150 188h63l-186 -240h-53z" />
    <glyph glyph-name="rcaron" unicode="&#x159;" horiz-adv-x="585" 
d="M549 915v-57q-33 10 -70 10q-87 0 -155.5 -59t-108.5 -156v-653h-61v909h61v-166q36 80 106 131.5t158 51.5q33 0 70 -11zM563 1321l-186 -260h-53l-187 260h64l149 -209l150 209h63z" />
    <glyph glyph-name="Sacute" unicode="&#x15a;" horiz-adv-x="1001" 
d="M508 1358h-68l174 239h68zM57 291h68q41 -119 142.5 -183.5t240.5 -64.5q151 0 246.5 74.5t95.5 204.5q0 93 -54.5 157t-177.5 99l-249 73q-142 43 -210.5 109.5t-68.5 187.5q0 153 111.5 239.5t273.5 86.5q171 0 280.5 -81.5t149.5 -221.5h-65q-39 116 -130.5 179.5
t-234.5 63.5q-138 0 -230.5 -71t-92.5 -195q0 -45 12.5 -79.5t32 -58t56 -44t72.5 -34t93 -30.5l209 -63q154 -46 220 -122t66 -195q0 -157 -114.5 -247.5t-290.5 -90.5q-167 0 -290.5 80.5t-160.5 226.5z" />
    <glyph glyph-name="sacute" unicode="&#x15b;" horiz-adv-x="792" 
d="M414 1071h-68l174 260h68zM59 225h64q30 -92 102.5 -138t177.5 -46q108 0 177 47.5t69 140.5q0 135 -190 189l-162 47q-104 30 -157.5 82t-53.5 141q0 112 84.5 175t208.5 63q131 0 216 -64t112 -176h-64q-31 94 -94.5 138t-169.5 44q-100 0 -166 -47t-66 -133
q0 -72 43.5 -106.5t147.5 -65.5l147 -43q226 -65 226 -244q0 -115 -86 -180t-222 -65q-132 0 -226.5 64t-117.5 177z" />
    <glyph glyph-name="Scircumflex" unicode="&#x15c;" horiz-adv-x="1001" 
d="M510 1604l186 -240h-63l-150 188l-149 -188h-64l187 240h53zM57 291h68q41 -119 142.5 -183.5t240.5 -64.5q151 0 246.5 74.5t95.5 204.5q0 93 -54.5 157t-177.5 99l-249 73q-142 43 -210.5 109.5t-68.5 187.5q0 153 111.5 239.5t273.5 86.5q171 0 280.5 -81.5
t149.5 -221.5h-65q-39 116 -130.5 179.5t-234.5 63.5q-138 0 -230.5 -71t-92.5 -195q0 -45 12.5 -79.5t32 -58t56 -44t72.5 -34t93 -30.5l209 -63q154 -46 220 -122t66 -195q0 -157 -114.5 -247.5t-290.5 -90.5q-167 0 -290.5 80.5t-160.5 226.5z" />
    <glyph glyph-name="scircumflex" unicode="&#x15d;" horiz-adv-x="792" 
d="M416 1317l186 -260h-63l-150 211l-149 -211h-64l186 260h54zM59 225h64q30 -92 102.5 -138t177.5 -46q108 0 177 47.5t69 140.5q0 135 -190 189l-162 47q-104 30 -157.5 82t-53.5 141q0 112 84.5 175t208.5 63q131 0 216 -64t112 -176h-64q-31 94 -94.5 138t-169.5 44
q-100 0 -166 -47t-66 -133q0 -72 43.5 -106.5t147.5 -65.5l147 -43q226 -65 226 -244q0 -115 -86 -180t-222 -65q-132 0 -226.5 64t-117.5 177z" />
    <glyph glyph-name="Scedilla" unicode="&#x15e;" horiz-adv-x="1001" 
d="M401 -348h-59l113 254h59zM57 291h68q41 -119 142.5 -183.5t240.5 -64.5q151 0 246.5 74.5t95.5 204.5q0 93 -54.5 157t-177.5 99l-249 73q-142 43 -210.5 109.5t-68.5 187.5q0 153 111.5 239.5t273.5 86.5q171 0 280.5 -81.5t149.5 -221.5h-65q-39 116 -130.5 179.5
t-234.5 63.5q-138 0 -230.5 -71t-92.5 -195q0 -45 12.5 -79.5t32 -58t56 -44t72.5 -34t93 -30.5l209 -63q154 -46 220 -122t66 -195q0 -157 -114.5 -247.5t-290.5 -90.5q-167 0 -290.5 80.5t-160.5 226.5z" />
    <glyph glyph-name="scedilla" unicode="&#x15f;" horiz-adv-x="792" 
d="M307 -348h-59l112 254h60zM59 225h64q30 -92 102.5 -138t177.5 -46q108 0 177 47.5t69 140.5q0 135 -190 189l-162 47q-104 30 -157.5 82t-53.5 141q0 112 84.5 175t208.5 63q131 0 216 -64t112 -176h-64q-31 94 -94.5 138t-169.5 44q-100 0 -166 -47t-66 -133
q0 -72 43.5 -106.5t147.5 -65.5l147 -43q226 -65 226 -244q0 -115 -86 -180t-222 -65q-132 0 -226.5 64t-117.5 177z" />
    <glyph glyph-name="Scaron" unicode="&#x160;" horiz-adv-x="1001" 
d="M457 1343l-187 240h64l149 -188l150 188h63l-186 -240h-53zM57 291h68q41 -119 142.5 -183.5t240.5 -64.5q151 0 246.5 74.5t95.5 204.5q0 93 -54.5 157t-177.5 99l-249 73q-142 43 -210.5 109.5t-68.5 187.5q0 153 111.5 239.5t273.5 86.5q171 0 280.5 -81.5
t149.5 -221.5h-65q-39 116 -130.5 179.5t-234.5 63.5q-138 0 -230.5 -71t-92.5 -195q0 -45 12.5 -79.5t32 -58t56 -44t72.5 -34t93 -30.5l209 -63q154 -46 220 -122t66 -195q0 -157 -114.5 -247.5t-290.5 -90.5q-167 0 -290.5 80.5t-160.5 226.5z" />
    <glyph glyph-name="scaron" unicode="&#x161;" horiz-adv-x="792" 
d="M602 1321l-186 -260h-54l-186 260h64l149 -209l150 209h63zM59 225h64q30 -92 102.5 -138t177.5 -46q108 0 177 47.5t69 140.5q0 135 -190 189l-162 47q-104 30 -157.5 82t-53.5 141q0 112 84.5 175t208.5 63q131 0 216 -64t112 -176h-64q-31 94 -94.5 138t-169.5 44
q-100 0 -166 -47t-66 -133q0 -72 43.5 -106.5t147.5 -65.5l147 -43q226 -65 226 -244q0 -115 -86 -180t-222 -65q-132 0 -226.5 64t-117.5 177z" />
    <glyph glyph-name="Tcedilla" unicode="&#x162;" horiz-adv-x="1142" 
d="M63 1196v61h1016v-61h-477v-1196h-63v1196h-476zM506 -348l69 143q-19 3 -31 16t-12 35q0 23 15.5 39.5t38.5 16.5t38 -16t15 -40q0 -25 -18 -61l-66 -133h-49z" />
    <glyph glyph-name="tcedilla" unicode="&#x163;" horiz-adv-x="579" 
d="M190 197v655h-155v57h155v230h62v-230h246v-57h-246v-649q0 -84 34.5 -123t104.5 -39q59 0 127 33v-62q-61 -28 -127 -28q-95 0 -148 53.5t-53 159.5zM272 -348l70 143q-19 3 -31 16t-12 35q0 24 15 40t38 16t38.5 -16.5t15.5 -39.5t-19 -61l-65 -133h-50z" />
    <glyph glyph-name="Tcaron" unicode="&#x164;" horiz-adv-x="1142" 
d="M63 1196v61h1016v-61h-477v-1196h-63v1196h-476zM545 1343l-187 240h64l149 -188l150 188h63l-186 -240h-53z" />
    <glyph glyph-name="tcaron" unicode="&#x165;" horiz-adv-x="579" 
d="M190 197v655h-155v57h155v230h62v-230h246v-57h-246v-649q0 -84 34.5 -123t104.5 -39q59 0 127 33v-62q-61 -28 -127 -28q-95 0 -148 53.5t-53 159.5zM428 1030h-53l65 322h54z" />
    <glyph glyph-name="Tbar" unicode="&#x166;" horiz-adv-x="1142" 
d="M63 1196v61h1016v-61h-477v-516h246v-57h-246v-623h-63v623h-246v57h246v516h-476z" />
    <glyph glyph-name="tbar" unicode="&#x167;" horiz-adv-x="579" 
d="M55 526v56h135v270h-155v57h155v230h62v-230h246v-57h-246v-270h199v-56h-199v-323q0 -84 34.5 -123t104.5 -39q59 0 127 33v-62q-61 -28 -127 -28q-95 0 -148 53.5t-53 159.5v329h-135z" />
    <glyph glyph-name="Utilde" unicode="&#x168;" horiz-adv-x="1236" 
d="M616 -16q-98 0 -182.5 31.5t-149.5 93t-102 160.5t-37 225v763h64v-753q0 -114 31.5 -203.5t87 -145t128.5 -84t160 -28.5t160.5 28.5t130.5 84t89 145t32 203.5v753h64v-763q0 -126 -38 -225t-103.5 -160.5t-150.5 -93t-184 -31.5zM809 1554h53q0 -91 -33.5 -142.5
t-95.5 -51.5q-37 0 -70.5 22.5t-54.5 49t-48 49t-52 22.5q-37 0 -57.5 -37t-20.5 -100h-53q0 90 33.5 142.5t95.5 52.5q37 0 70 -22.5t54 -49.5t48 -49.5t53 -22.5q37 0 57.5 37t20.5 100z" />
    <glyph glyph-name="utilde" unicode="&#x169;" horiz-adv-x="976" 
d="M823 909v-909h-61v168q-46 -79 -127 -131.5t-178 -52.5q-152 0 -233 86.5t-81 232.5v606h62v-598q0 -122 64 -195t192 -73q99 0 178.5 61t122.5 154v651h61zM674 1268h53q0 -91 -33.5 -143t-95.5 -52q-37 0 -70.5 22.5t-54.5 49.5t-48 49.5t-52 22.5q-37 0 -57.5 -37.5
t-20.5 -100.5h-53q0 90 33.5 142.5t95.5 52.5q37 0 70 -22.5t54 -49.5t48 -49.5t53 -22.5q37 0 57.5 37.5t20.5 100.5z" />
    <glyph glyph-name="Umacron" unicode="&#x16a;" horiz-adv-x="1236" 
d="M616 -16q-98 0 -182.5 31.5t-149.5 93t-102 160.5t-37 225v763h64v-753q0 -114 31.5 -203.5t87 -145t128.5 -84t160 -28.5t160.5 28.5t130.5 84t89 145t32 203.5v753h64v-763q0 -126 -38 -225t-103.5 -160.5t-150.5 -93t-184 -31.5zM422 1372v55h395v-55h-395z" />
    <glyph glyph-name="umacron" unicode="&#x16b;" horiz-adv-x="976" 
d="M823 909v-909h-61v168q-46 -79 -127 -131.5t-178 -52.5q-152 0 -233 86.5t-81 232.5v606h62v-598q0 -122 64 -195t192 -73q99 0 178.5 61t122.5 154v651h61zM287 1110v55h395v-55h-395z" />
    <glyph glyph-name="Ubreve" unicode="&#x16c;" horiz-adv-x="1236" 
d="M616 -16q-98 0 -182.5 31.5t-149.5 93t-102 160.5t-37 225v763h64v-753q0 -114 31.5 -203.5t87 -145t128.5 -84t160 -28.5t160.5 28.5t130.5 84t89 145t32 203.5v753h64v-763q0 -126 -38 -225t-103.5 -160.5t-150.5 -93t-184 -31.5zM618 1358q-85 0 -137.5 61t-52.5 172
h55q0 -86 37.5 -134t97.5 -48t98 48t38 134h55q0 -111 -53 -172t-138 -61z" />
    <glyph glyph-name="ubreve" unicode="&#x16d;" horiz-adv-x="976" 
d="M823 909v-909h-61v168q-46 -79 -127 -131.5t-178 -52.5q-152 0 -233 86.5t-81 232.5v606h62v-598q0 -122 64 -195t192 -73q99 0 178.5 61t122.5 154v651h61zM483 1044q-84 0 -137 61.5t-53 172.5h55q0 -86 37.5 -134t97.5 -48t97.5 48t37.5 134h56q0 -111 -53 -172.5
t-138 -61.5z" />
    <glyph glyph-name="Uring" unicode="&#x16e;" horiz-adv-x="1236" 
d="M616 -16q-98 0 -182.5 31.5t-149.5 93t-102 160.5t-37 225v763h64v-753q0 -114 31.5 -203.5t87 -145t128.5 -84t160 -28.5t160.5 28.5t130.5 84t89 145t32 203.5v753h64v-763q0 -126 -38 -225t-103.5 -160.5t-150.5 -93t-184 -31.5zM776 1483q0 -66 -46 -112t-112 -46
t-111.5 46t-45.5 112t45.5 111.5t111.5 45.5t112 -45.5t46 -111.5zM725 1483q0 44 -31.5 75t-75.5 31t-75 -31t-31 -75t31 -75.5t75 -31.5t75.5 31.5t31.5 75.5z" />
    <glyph glyph-name="uring" unicode="&#x16f;" horiz-adv-x="976" 
d="M823 909v-909h-61v168q-46 -79 -127 -131.5t-178 -52.5q-152 0 -233 86.5t-81 232.5v606h62v-598q0 -122 64 -195t192 -73q99 0 178.5 61t122.5 154v651h61zM641 1188q0 -66 -46 -112t-112 -46t-111.5 46t-45.5 112t45.5 112t111.5 46t112 -46t46 -112zM590 1188
q0 44 -31.5 75t-75.5 31t-75 -31t-31 -75t31 -75.5t75 -31.5t75.5 31.5t31.5 75.5z" />
    <glyph glyph-name="Uhungarumlaut" unicode="&#x170;" horiz-adv-x="1236" 
d="M616 -16q-98 0 -182.5 31.5t-149.5 93t-102 160.5t-37 225v763h64v-753q0 -114 31.5 -203.5t87 -145t128.5 -84t160 -28.5t160.5 28.5t130.5 84t89 145t32 203.5v753h64v-763q0 -126 -38 -225t-103.5 -160.5t-150.5 -93t-184 -31.5zM547 1358h-64l162 239h64zM758 1358
h-64l162 239h64z" />
    <glyph glyph-name="uhungarumlaut" unicode="&#x171;" horiz-adv-x="976" 
d="M823 909v-909h-61v168q-46 -79 -127 -131.5t-178 -52.5q-152 0 -233 86.5t-81 232.5v606h62v-598q0 -122 64 -195t192 -73q99 0 178.5 61t122.5 154v651h61zM408 1071h-64l162 260h63zM618 1071h-63l162 260h63z" />
    <glyph glyph-name="Uogonek" unicode="&#x172;" horiz-adv-x="1236" 
d="M616 -16q-98 0 -182.5 31.5t-149.5 93t-102 160.5t-37 225v763h64v-753q0 -114 31.5 -203.5t87 -145t128.5 -84t160 -28.5t160.5 28.5t130.5 84t89 145t32 203.5v753h64v-763q0 -161 -59 -266.5t-167 -184.5q-96 -70 -139 -146.5t-43 -146.5q0 -32 14.5 -49.5t38.5 -17.5
q37 0 76 28v-51q-37 -27 -80 -27q-44 0 -74 30t-30 87q0 134 129 252q-81 -18 -142 -18z" />
    <glyph glyph-name="uogonek" unicode="&#x173;" horiz-adv-x="976" 
d="M823 909v-909q-62 -110 -82 -161t-20 -93q0 -31 14.5 -47t38.5 -16q37 0 76 28v-51q-38 -27 -80 -27q-45 0 -74.5 28t-29.5 85q0 44 21.5 98t78.5 156h-4v168q-46 -79 -127 -131.5t-178 -52.5q-152 0 -233 86.5t-81 232.5v606h62v-598q0 -122 64 -195t192 -73
q99 0 178.5 61t122.5 154v651h61z" />
    <glyph glyph-name="Wcircumflex" unicode="&#x174;" horiz-adv-x="1542" 
d="M743 1257h54l317 -1140l316 1140h63l-350 -1257h-56l-317 1137l-315 -1137h-56l-350 1257h64l315 -1140zM797 1604l186 -240h-63l-150 188l-149 -188h-64l186 240h54z" />
    <glyph glyph-name="wcircumflex" unicode="&#x175;" horiz-adv-x="1200" 
d="M623 909l237 -788l244 788h59l-278 -909h-43l-242 797l-242 -797h-43l-278 909h59l244 -788l238 788h45zM627 1317l186 -260h-63l-150 211l-149 -211h-64l186 260h54z" />
    <glyph glyph-name="Ycircumflex" unicode="&#x176;" horiz-adv-x="1062" 
d="M532 608l420 649h70l-459 -708v-549h-63v549l-459 708h72zM557 1604l186 -240h-63l-150 188l-149 -188h-64l187 240h53z" />
    <glyph glyph-name="ycircumflex" unicode="&#x177;" horiz-adv-x="851" 
d="M305 -348h-63l153 375l-358 882h67l322 -807l324 807h65zM453 1317l186 -260h-64l-149 211l-150 -211h-63l186 260h54z" />
    <glyph glyph-name="Ydieresis" unicode="&#x178;" horiz-adv-x="1062" 
d="M532 608l420 649h70l-459 -708v-549h-63v549l-459 708h72zM367 1454q0 20 13.5 33.5t33.5 13.5t33.5 -13.5t13.5 -33.5t-13.5 -33.5t-33.5 -13.5t-33.5 13.5t-13.5 33.5zM600 1454q0 20 13.5 33.5t33.5 13.5t33.5 -13.5t13.5 -33.5t-13.5 -33.5t-33.5 -13.5t-33.5 13.5
t-13.5 33.5z" />
    <glyph glyph-name="Zacute" unicode="&#x179;" horiz-adv-x="1038" 
d="M963 61v-61h-893v53l807 1143h-797v61h874v-53l-807 -1143h816zM582 1358h-68l174 239h68z" />
    <glyph glyph-name="zacute" unicode="&#x17a;" horiz-adv-x="825" 
d="M748 57v-57h-670v49l588 803h-582v57h657v-49l-585 -803h592zM444 1071h-67l174 260h67z" />
    <glyph glyph-name="Zdotaccent" unicode="&#x17b;" horiz-adv-x="1038" 
d="M963 61v-61h-893v53l807 1143h-797v61h874v-53l-807 -1143h816zM604 1452q0 -21 -13 -35t-34 -14t-34 14t-13 35t13 35t34 14t34 -14t13 -35z" />
    <glyph glyph-name="zdotaccent" unicode="&#x17c;" horiz-adv-x="825" 
d="M748 57v-57h-670v49l588 803h-582v57h657v-49l-585 -803h592zM467 1186q0 -21 -13 -35t-34 -14t-34 14t-13 35t13 35t34 14t34 -14t13 -35z" />
    <glyph glyph-name="Zcaron" unicode="&#x17d;" horiz-adv-x="1038" 
d="M963 61v-61h-893v53l807 1143h-797v61h874v-53l-807 -1143h816zM530 1343l-186 240h64l149 -188l150 188h63l-186 -240h-54z" />
    <glyph glyph-name="zcaron" unicode="&#x17e;" horiz-adv-x="825" 
d="M748 57v-57h-670v49l588 803h-582v57h657v-49l-585 -803h592zM633 1321l-187 -260h-53l-186 260h63l150 -209l149 209h64z" />
    <glyph glyph-name="florin" unicode="&#x192;" horiz-adv-x="755" 
d="M133 627v53h156l59 328q21 120 85.5 193t164.5 73q62 0 117 -25v-61q-60 29 -117 29q-75 0 -122 -57t-66 -161l-58 -319h221v-53h-229l-129 -727q-45 -248 -225 -248q-60 0 -113 24v62q60 -29 113 -29q72 0 110 51.5t54 147.5l127 719h-148z" />
    <glyph glyph-name="Aringacute" unicode="&#x1fa;" horiz-adv-x="1161" 
d="M553 1257h55l504 -1257h-63l-177 438h-585l-174 -438h-64zM580 1169l-269 -669h537zM745 1458q0 -58 -48 -98.5t-117 -40.5q-68 0 -116 40.5t-48 98.5q0 60 48 100.5t116 40.5q69 0 117 -40.5t48 -100.5zM692 1458q0 40 -32 66t-80 26q-46 0 -78.5 -26.5t-32.5 -65.5
q0 -38 32.5 -64t78.5 -26q47 0 79.5 26t32.5 64zM608 1661h-59l123 168h59z" />
    <glyph glyph-name="aringacute" unicode="&#x1fb;" horiz-adv-x="882" 
d="M604 1126q0 -58 -48.5 -98.5t-117.5 -40.5q-68 0 -116 40.5t-48 98.5q0 60 48 101t116 41q69 0 117.5 -41t48.5 -101zM551 1126q0 40 -33 66.5t-80 26.5q-46 0 -78 -26.5t-32 -66.5q0 -38 32 -64t78 -26q47 0 80 26t33 64zM467 1329h-59l122 168h60zM739 0h-61v98
q-37 -43 -109 -77.5t-153 -34.5q-142 0 -238 75.5t-96 198.5t96 199t238 76q81 0 153 -34.5t109 -78.5v194q0 116 -65.5 184t-182.5 68q-190 0 -246 -178h-63q27 113 110 174.5t199 61.5q142 0 225.5 -82.5t83.5 -220.5v-623zM678 195v131q-23 65 -97.5 108t-164.5 43
q-114 0 -193.5 -57.5t-79.5 -159.5t79.5 -159.5t193.5 -57.5q90 0 164.5 43.5t97.5 108.5z" />
    <glyph glyph-name="AEacute" unicode="&#x1fc;" horiz-adv-x="1751" 
d="M854 1257h774v-61h-680v-516h615v-62h-615v-557h680v-61h-743v438h-488l-280 -438h-68zM885 1194l-447 -694h447v694zM1268 1358h-68l174 239h68z" />
    <glyph glyph-name="aeacute" unicode="&#x1fd;" horiz-adv-x="1497" 
d="M371 41q113 0 190 70t109 174v176h-264q-114 0 -193.5 -56t-79.5 -155t67 -154t171 -55zM1333 256h64q-28 -124 -118 -198t-222 -74q-118 0 -209 64.5t-139 176.5q-43 -100 -128 -169.5t-210 -69.5q-132 0 -215.5 72t-83.5 192t96 193t238 73h264v100q0 116 -65.5 184
t-182.5 68q-190 0 -246 -178h-63q27 113 110 174.5t199 61.5q118 0 196.5 -61.5t100.5 -166.5q50 105 135.5 166.5t200.5 61.5q173 0 266.5 -122t93.5 -321v-22h-688q0 -195 91.5 -307.5t238.5 -112.5q105 0 179 58t97 157zM1055 868q-137 0 -225.5 -96.5t-100.5 -255.5h621
q-3 94 -33 171t-97.5 129t-164.5 52zM797 1071h-68l174 260h68z" />
    <glyph glyph-name="Oslashacute" unicode="&#x1fe;" horiz-adv-x="1277" 
d="M92 0l144 174q-144 181 -144 455q0 143 42 264.5t115 204.5t173.5 129.5t216.5 46.5q221 0 373 -158l114 141l45 -36l-122 -148q137 -177 137 -444q0 -288 -154.5 -466.5t-392.5 -178.5q-215 0 -365 147l-137 -168zM158 629q0 -249 118 -404l695 844q-130 143 -332 143
q-213 0 -347 -162t-134 -421zM1120 629q0 237 -112 393l-693 -842q129 -135 324 -135q214 0 347.5 162t133.5 422zM664 1358h-68l174 239h68z" />
    <glyph glyph-name="oslashacute" unicode="&#x1ff;" horiz-adv-x="974" 
d="M94 -4l101 129q-99 129 -99 330q0 211 107 341t284 130q153 0 256 -103l88 113l43 -31l-96 -121q101 -131 101 -329q0 -211 -107.5 -341t-284.5 -130q-150 0 -258 100l-92 -119zM160 455q0 -172 73 -281l474 602q-86 92 -220 92q-147 0 -237 -113t-90 -300zM815 455
q0 169 -76 278l-471 -602q87 -90 219 -90q147 0 237.5 113.5t90.5 300.5zM510 1071h-68l174 260h68z" />
    <glyph glyph-name="Scommaaccent" unicode="&#x218;" horiz-adv-x="1001" 
d="M418 -348l69 143q-19 3 -31 16t-12 35q0 23 15.5 39.5t38.5 16.5t38 -16t15 -40q0 -23 -19 -61l-65 -133h-49zM57 291h68q41 -119 142.5 -183.5t240.5 -64.5q151 0 246.5 74.5t95.5 204.5q0 93 -54.5 157t-177.5 99l-249 73q-142 43 -210.5 109.5t-68.5 187.5
q0 153 111.5 239.5t273.5 86.5q171 0 280.5 -81.5t149.5 -221.5h-65q-39 116 -130.5 179.5t-234.5 63.5q-138 0 -230.5 -71t-92.5 -195q0 -45 12.5 -79.5t32 -58t56 -44t72.5 -34t93 -30.5l209 -63q154 -46 220 -122t66 -195q0 -157 -114.5 -247.5t-290.5 -90.5
q-167 0 -290.5 80.5t-160.5 226.5z" />
    <glyph glyph-name="scommaaccent" unicode="&#x219;" horiz-adv-x="792" 
d="M324 -348l69 143q-19 3 -31 16t-12 35q0 24 15 40t38 16t38.5 -16.5t15.5 -39.5t-19 -61l-65 -133h-49zM59 225h64q30 -92 102.5 -138t177.5 -46q108 0 177 47.5t69 140.5q0 135 -190 189l-162 47q-104 30 -157.5 82t-53.5 141q0 112 84.5 175t208.5 63q131 0 216 -64
t112 -176h-64q-31 94 -94.5 138t-169.5 44q-100 0 -166 -47t-66 -133q0 -72 43.5 -106.5t147.5 -65.5l147 -43q226 -65 226 -244q0 -115 -86 -180t-222 -65q-132 0 -226.5 64t-117.5 177z" />
    <glyph glyph-name="uni0237" unicode="&#x237;" horiz-adv-x="368" 
d="M215 909v-1059q0 -107 -54.5 -161t-148.5 -54q-15 0 -35 5v57q16 -4 35 -4q71 0 106.5 35.5t35.5 130.5v1050h61z" />
    <glyph glyph-name="circumflex" unicode="&#x2c6;" 
d="M539 1317l186 -260h-63l-150 211l-150 -211h-63l186 260h54z" />
    <glyph glyph-name="caron" unicode="&#x2c7;" 
d="M725 1321l-186 -260h-54l-186 260h63l150 -209l150 209h63z" />
    <glyph glyph-name="breve" unicode="&#x2d8;" 
d="M512 1044q-84 0 -137 61.5t-53 172.5h55q0 -86 37.5 -134t97.5 -48t97.5 48t37.5 134h55q0 -111 -53 -172.5t-137 -61.5z" />
    <glyph glyph-name="dotaccent" unicode="&#x2d9;" 
d="M559 1186q0 -21 -13 -35t-34 -14t-34 14t-13 35t13 35t34 14t34 -14t13 -35z" />
    <glyph glyph-name="ring" unicode="&#x2da;" 
d="M670 1188q0 -66 -46 -112t-112 -46t-112 46t-46 112t46 112t112 46t112 -46t46 -112zM618 1188q0 44 -31 75t-75 31t-75 -31t-31 -75t31 -75.5t75 -31.5t75 31.5t31 75.5z" />
    <glyph glyph-name="ogonek" unicode="&#x2db;" 
d="M561 6h57q-65 -114 -85.5 -166t-20.5 -94q0 -31 14.5 -47t38.5 -16q37 0 76 28v-51q-37 -27 -80 -27q-45 0 -74.5 28t-29.5 85q0 43 22 97t82 163z" />
    <glyph glyph-name="tilde" unicode="&#x2dc;" 
d="M700 1268h54q0 -91 -33.5 -143t-95.5 -52q-37 0 -70.5 22.5t-55 49.5t-48.5 49.5t-52 22.5q-37 0 -57 -37.5t-20 -100.5h-54q0 90 33.5 142.5t95.5 52.5q30 0 57.5 -15t47.5 -36t38.5 -42t40 -36t42.5 -15q37 0 57 37.5t20 100.5z" />
    <glyph glyph-name="hungarumlaut" unicode="&#x2dd;" 
d="M356 1071h-63l162 260h63zM567 1071h-63l162 260h63z" />
    <glyph glyph-name="Wgrave" unicode="&#x1e80;" horiz-adv-x="1542" 
d="M743 1257h54l317 -1140l316 1140h63l-350 -1257h-56l-317 1137l-315 -1137h-56l-350 1257h64l315 -1140zM805 1358h-68l-174 239h68z" />
    <glyph glyph-name="wgrave" unicode="&#x1e81;" horiz-adv-x="1200" 
d="M623 909l237 -788l244 788h59l-278 -909h-43l-242 797l-242 -797h-43l-278 909h59l244 -788l238 788h45zM635 1071h-68l-174 260h68z" />
    <glyph glyph-name="Wacute" unicode="&#x1e82;" horiz-adv-x="1542" 
d="M743 1257h54l317 -1140l316 1140h63l-350 -1257h-56l-317 1137l-315 -1137h-56l-350 1257h64l315 -1140zM795 1358h-68l174 239h68z" />
    <glyph glyph-name="wacute" unicode="&#x1e83;" horiz-adv-x="1200" 
d="M623 909l237 -788l244 788h59l-278 -909h-43l-242 797l-242 -797h-43l-278 909h59l244 -788l238 788h45zM625 1071h-68l174 260h68z" />
    <glyph glyph-name="Wdieresis" unicode="&#x1e84;" horiz-adv-x="1542" 
d="M743 1257h54l317 -1140l316 1140h63l-350 -1257h-56l-317 1137l-315 -1137h-56l-350 1257h64l315 -1140zM606 1454q0 20 13.5 33.5t33.5 13.5t33.5 -13.5t13.5 -33.5t-13.5 -33.5t-33.5 -13.5t-33.5 13.5t-13.5 33.5zM840 1454q0 20 13.5 33.5t33.5 13.5t33.5 -13.5
t13.5 -33.5t-13.5 -33.5t-33.5 -13.5t-33.5 13.5t-13.5 33.5z" />
    <glyph glyph-name="wdieresis" unicode="&#x1e85;" horiz-adv-x="1200" 
d="M623 909l237 -788l244 788h59l-278 -909h-43l-242 797l-242 -797h-43l-278 909h59l244 -788l238 788h45zM436 1167q0 20 13.5 33.5t33.5 13.5t33.5 -13.5t13.5 -33.5t-13.5 -33.5t-33.5 -13.5t-33.5 13.5t-13.5 33.5zM670 1167q0 20 13.5 33.5t33.5 13.5t33.5 -13.5
t13.5 -33.5t-13.5 -33.5t-33.5 -13.5t-33.5 13.5t-13.5 33.5z" />
    <glyph glyph-name="Ygrave" unicode="&#x1ef2;" horiz-adv-x="1062" 
d="M532 608l420 649h70l-459 -708v-549h-63v549l-459 708h72zM565 1358h-67l-174 239h67z" />
    <glyph glyph-name="ygrave" unicode="&#x1ef3;" horiz-adv-x="851" 
d="M305 -348h-63l153 375l-358 882h67l322 -807l324 807h65zM461 1071h-68l-174 260h68z" />
    <glyph glyph-name="endash" unicode="&#x2013;" horiz-adv-x="972" 
d="M82 502v55h809v-55h-809z" />
    <glyph glyph-name="emdash" unicode="&#x2014;" horiz-adv-x="1732" 
d="M82 502v55h1569v-55h-1569z" />
    <glyph glyph-name="quoteleft" unicode="&#x2018;" horiz-adv-x="247" 
d="M207 1257l-92 -190q19 -3 31 -16t12 -35q0 -23 -15.5 -39t-38.5 -16t-38 16t-15 39t19 61l88 180h49z" />
    <glyph glyph-name="quoteright" unicode="&#x2019;" horiz-adv-x="247" 
d="M41 977l92 190q-19 3 -31 16.5t-12 35.5q0 23 15 39t38 16t38.5 -16t15.5 -39q0 -24 -19 -62l-88 -180h-49z" />
    <glyph glyph-name="quotesinglbase" unicode="&#x201a;" horiz-adv-x="206" 
d="M41 -193l92 191q-19 3 -31 16t-12 35q0 23 15 39t38 16t38.5 -16t15.5 -39t-19 -61l-88 -181h-49z" />
    <glyph glyph-name="quotedblleft" unicode="&#x201c;" horiz-adv-x="454" 
d="M207 1257l-92 -190q19 -3 31 -16t12 -35q0 -23 -15.5 -39t-38.5 -16t-38 16t-15 39t19 61l88 180h49zM414 1257l-92 -190q19 -3 31 -16t12 -35q0 -23 -15.5 -39t-38.5 -16t-38 16t-15 39q0 25 18 61l89 180h49z" />
    <glyph glyph-name="quotedblright" unicode="&#x201d;" horiz-adv-x="454" 
d="M41 977l92 190q-19 3 -31 16.5t-12 35.5q0 23 15 39t38 16t38.5 -16t15.5 -39q0 -24 -19 -62l-88 -180h-49zM248 977l92 190q-19 3 -31 16.5t-12 35.5q0 23 15 39t38 16t38 -16t15 -39q0 -26 -18 -62l-88 -180h-49z" />
    <glyph glyph-name="quotedblbase" unicode="&#x201e;" horiz-adv-x="454" 
d="M41 -193l92 191q-19 3 -31 16t-12 35q0 23 15 39t38 16t38.5 -16t15.5 -39t-19 -61l-88 -181h-49zM248 -193l92 191q-19 3 -31 16t-12 35q0 23 15 39t38 16t38 -16t15 -39q0 -25 -18 -61l-88 -181h-49z" />
    <glyph glyph-name="dagger" unicode="&#x2020;" horiz-adv-x="589" 
d="M63 1090v53h203v188h58v-188h202v-53h-202v-414h-58v414h-203z" />
    <glyph glyph-name="daggerdbl" unicode="&#x2021;" horiz-adv-x="589" 
d="M63 1085v54h203v192h58v-192h202v-54h-202v-163h202v-54h-202v-192h-58v192h-203v54h203v163h-203z" />
    <glyph glyph-name="bullet" unicode="&#x2022;" horiz-adv-x="665" 
d="M584 530q0 -108 -72.5 -178.5t-179.5 -70.5q-105 0 -177.5 70.5t-72.5 178.5t72.5 179t177.5 71q107 0 179.5 -71t72.5 -179z" />
    <glyph glyph-name="ellipsis" unicode="&#x2026;" horiz-adv-x="806" 
d="M68 51q0 23 15.5 39t37.5 16t37.5 -16t15.5 -39t-15.5 -39t-37.5 -16t-37.5 16t-15.5 39zM350 51q0 23 15.5 39t37.5 16t38 -16t16 -39t-16 -39t-38 -16t-37.5 16t-15.5 39zM633 51q0 23 15.5 39t37.5 16t37.5 -16t15.5 -39t-15.5 -39t-37.5 -16t-37.5 16t-15.5 39z" />
    <glyph glyph-name="perthousand" unicode="&#x2030;" horiz-adv-x="1808" 
d="M170 0l838 1257h61l-838 -1257h-61zM82 1022q0 104 73 178t177 74t178 -74t74 -178t-74 -177t-178 -73t-177 73t-73 177zM1157 236q0 -104 -73 -178t-177 -74t-178 74t-74 178t73.5 176.5t178.5 72.5q104 0 177 -72.5t73 -176.5zM1100 236q0 79 -56.5 135.5t-136.5 56.5
q-81 0 -137.5 -56t-56.5 -136q0 -82 56 -138.5t138 -56.5q80 0 136.5 57t56.5 138zM1726 236q0 -105 -72.5 -178.5t-176.5 -73.5t-178 74t-74 178t73.5 176.5t178.5 72.5q104 0 176.5 -72.5t72.5 -176.5zM1669 236q0 80 -56.5 136t-135.5 56q-82 0 -138.5 -56t-56.5 -136
q0 -82 56.5 -138.5t138.5 -56.5q80 0 136 56.5t56 138.5zM139 1022q0 -80 56.5 -136.5t136.5 -56.5q81 0 137.5 56.5t56.5 136.5q0 82 -56 138.5t-138 56.5q-80 0 -136.5 -57t-56.5 -138z" />
    <glyph glyph-name="guilsinglleft" unicode="&#x2039;" horiz-adv-x="358" 
d="M307 193h-67l-189 262l189 262h67l-188 -262z" />
    <glyph glyph-name="guilsinglright" unicode="&#x203a;" horiz-adv-x="358" 
d="M119 193h-68l189 262l-189 262h68l188 -262z" />
    <glyph glyph-name="fraction" unicode="&#x2044;" horiz-adv-x="407" 
d="M653 1257l-837 -1257h-62l838 1257h61z" />
    <glyph glyph-name="Euro" unicode="&#x20ac;" horiz-adv-x="1097" 
d="M61 709v55h127q29 238 154 374t305 136q143 0 245.5 -92t135.5 -246h-61q-38 131 -119.5 204.5t-200.5 73.5q-154 0 -259.5 -120t-133.5 -330h477l-14 -55h-469q-2 -27 -2 -80q0 -32 4 -90h440l-14 -56h-422q29 -206 134.5 -323t258.5 -117q119 0 200.5 74t119.5 205h61
q-33 -154 -135.5 -246t-245.5 -92q-177 0 -302 133t-157 366h-127v56h121q-2 29 -2 90q0 53 2 80h-121z" />
    <glyph glyph-name="uni2117" unicode="&#x2117;" horiz-adv-x="1454" 
d="M1372 629q0 -138 -51 -258.5t-138.5 -205t-206 -133t-249.5 -48.5t-249.5 48.5t-206 133t-138.5 205t-51 258.5t51 258.5t138.5 205t206 133t249.5 48.5t249.5 -48.5t206 -133t138.5 -205t51 -258.5zM1319 629q0 168 -80 304.5t-215 212t-297 75.5t-297 -75.5t-215 -212
t-80 -304.5t80 -304.5t215 -212t297 -75.5t297 75.5t215 212t80 304.5zM795 578h-211v-324h-62v756h273q114 0 176.5 -55t62.5 -160q0 -106 -62.5 -161.5t-176.5 -55.5zM975 795q0 74 -46.5 115.5t-133.5 41.5h-211v-315h211q87 0 133.5 41.5t46.5 116.5z" />
    <glyph glyph-name="trademark" unicode="&#x2122;" horiz-adv-x="1157" 
d="M31 1208v49h422v-49h-183v-471h-57v471h-182zM825 737h-45l-172 416v-416h-57v520h67l187 -446l184 446h66v-520h-58v416z" />
    <glyph glyph-name="uni2153" unicode="&#x2153;" horiz-adv-x="1320" 
d="M1061 1257l-838 -1257h-61l837 1257h62zM944 319v52h51q59 0 98.5 34.5t39.5 94.5q0 56 -39.5 91.5t-102.5 35.5q-58 0 -98 -35.5t-51 -95.5h-60q12 84 69 135t140 51q92 0 146.5 -50.5t54.5 -129.5q0 -59 -34.5 -102t-86.5 -54q59 -11 97 -54.5t38 -107.5
q0 -82 -57 -138t-154 -56q-95 0 -154 51t-71 141h64q11 -65 52.5 -101t108.5 -36q68 0 109 38t41 101q0 61 -43 98t-107 37h-51zM340 1262v-674h-59v600l-175 -90v63l197 101h37z" />
    <glyph glyph-name="uni2154" unicode="&#x2154;" horiz-adv-x="1421" 
d="M1161 1257l-837 -1257h-62l838 1257h61zM451 1079q0 60 -37 95.5t-99 35.5q-68 0 -107.5 -42.5t-45.5 -114.5h-62q9 96 66.5 154.5t148.5 58.5q89 0 142 -51.5t53 -135.5q0 -13 -2.5 -26t-5 -23.5t-9.5 -24t-11 -22t-14.5 -23t-15.5 -21.5t-18.5 -23t-18 -21t-20.5 -22.5
t-20 -22.5l-195 -211h338v-55h-420v41l232 256q38 41 50.5 55.5t34.5 43.5t29 51.5t7 47.5zM1044 319v52h52q59 0 98 34.5t39 94.5q0 56 -39 91.5t-102 35.5q-58 0 -98.5 -35.5t-51.5 -95.5h-59q12 84 69 135t140 51q92 0 146 -50t54 -130q0 -59 -34.5 -102t-86.5 -54
q59 -11 97.5 -54.5t38.5 -107.5q0 -82 -57 -138t-154 -56q-95 0 -154.5 51t-71.5 141h64q11 -65 53 -101t109 -36q68 0 108.5 38t40.5 101q0 61 -43 98t-106 37h-52z" />
    <glyph glyph-name="uni215B" unicode="&#x215b;" horiz-adv-x="1306" 
d="M1061 1257l-838 -1257h-61l837 1257h62zM975 41q73 0 120.5 41.5t47.5 103.5t-47.5 104t-120.5 42q-74 0 -121 -42t-47 -104t47 -103.5t121 -41.5zM975 383q61 0 101 35t40 88t-40 89t-101 36q-62 0 -103 -36t-41 -89t40.5 -88t103.5 -35zM975 -10q-98 0 -162.5 54.5
t-64.5 139.5q0 62 38 109.5t99 62.5q-50 19 -80.5 59.5t-30.5 92.5q0 75 57 124.5t144 49.5q86 0 142.5 -49.5t56.5 -124.5q0 -52 -30.5 -92.5t-80.5 -59.5q61 -15 99 -62.5t38 -109.5q0 -84 -64 -139t-161 -55zM340 1262v-674h-59v600l-175 -90v63l197 101h37z" />
    <glyph glyph-name="uni215C" unicode="&#x215c;" horiz-adv-x="1392" 
d="M1061 41q73 0 120.5 41.5t47.5 103.5t-47.5 104t-120.5 42q-74 0 -121 -42t-47 -104t47 -103.5t121 -41.5zM1061 383q61 0 101 35t40 88t-40 89t-101 36q-62 0 -102.5 -36t-40.5 -89t40 -88t103 -35zM1061 -10q-98 0 -162.5 54.5t-64.5 139.5q0 62 38 109.5t99 62.5
q-50 19 -80.5 59.5t-30.5 92.5q0 75 57 124.5t144 49.5q86 0 142.5 -49.5t56.5 -124.5q0 -52 -30.5 -92.5t-80.5 -59.5q61 -15 99 -62.5t38 -109.5q0 -84 -64 -139t-161 -55zM1147 1257l-838 -1257h-61l837 1257h62zM272 907v51h52q59 0 98 34.5t39 94.5q0 56 -39.5 91.5
t-102.5 35.5q-58 0 -98 -35.5t-51 -95.5h-59q12 84 68.5 135.5t139.5 51.5q92 0 146.5 -50.5t54.5 -129.5q0 -59 -34.5 -102t-86.5 -54q59 -11 97.5 -54.5t38.5 -107.5q0 -82 -57 -138t-154 -56q-95 0 -154.5 51t-71.5 141h64q11 -65 53 -101t109 -36q68 0 108.5 38
t40.5 101q0 61 -43 98t-106 37h-52z" />
    <glyph glyph-name="uni215D" unicode="&#x215d;" horiz-adv-x="1392" 
d="M1061 41q73 0 120.5 41.5t47.5 103.5t-47.5 104t-120.5 42q-74 0 -121 -42t-47 -104t47 -103.5t121 -41.5zM1061 383q61 0 101 35t40 88t-40 89t-101 36q-62 0 -102.5 -36t-40.5 -89t40 -88t103 -35zM1061 -10q-98 0 -162.5 54.5t-64.5 139.5q0 62 38 109.5t99 62.5
q-50 19 -80.5 59.5t-30.5 92.5q0 75 57 124.5t144 49.5q86 0 142.5 -49.5t56.5 -124.5q0 -52 -30.5 -92.5t-80.5 -59.5q61 -15 99 -62.5t38 -109.5q0 -84 -64 -139t-161 -55zM1147 1257l-838 -1257h-61l837 1257h62zM328 963q-78 0 -127 -64h-54v361h359v-56h-305v-237
q49 49 129 49q91 0 151 -63t60 -156t-60 -156t-153 -63q-94 0 -153.5 50.5t-74.5 141.5h62q14 -66 56.5 -101.5t109.5 -35.5t111 47t44 117t-44 118t-111 48z" />
    <glyph glyph-name="uni215E" unicode="&#x215e;" horiz-adv-x="1265" 
d="M934 41q73 0 120.5 41.5t47.5 103.5t-47.5 104t-120.5 42q-74 0 -121 -42t-47 -104t47 -103.5t121 -41.5zM934 383q61 0 101 35t40 88t-40 89t-101 36q-62 0 -102.5 -36t-40.5 -89t40 -88t103 -35zM934 -10q-98 0 -162.5 54.5t-64.5 139.5q0 62 38 109.5t99 62.5
q-50 19 -80.5 59.5t-30.5 92.5q0 75 57 124.5t144 49.5q86 0 142.5 -49.5t56.5 -124.5q0 -52 -30.5 -92.5t-80.5 -59.5q61 -15 99 -62.5t38 -109.5q0 -84 -64 -139t-161 -55zM1020 1257l-838 -1257h-61l837 1257h62zM520 1208l-246 -622h-61l246 616h-365v55h426v-49z" />
    <glyph glyph-name="minus" unicode="&#x2212;" horiz-adv-x="1013" 
d="M143 569v60h727v-60h-727z" />
    <glyph glyph-name="approxequal" unicode="&#x2248;" 
d="M147 616v70q95 98 195 98q53 0 111.5 -26t116 -52t106.5 -26q101 0 201 106v-69q-96 -99 -201 -99q-42 0 -88 16.5t-80.5 36t-80 36t-85.5 16.5q-91 0 -195 -107zM147 416v69q96 99 195 99q42 0 89 -16.5t81 -36t79 -36t85 -16.5q100 0 201 107v-70q-95 -98 -201 -98
q-52 0 -110.5 26t-116 52t-107.5 26q-92 0 -195 -106z" />
    <glyph glyph-name="notequal" unicode="&#x2260;" 
d="M147 694v58h451l145 178h72l-145 -178h207v-58h-252l-152 -186h404v-57h-451l-145 -181h-72l145 181h-207v57h254l152 186h-406z" />
    <glyph glyph-name="lessequal" unicode="&#x2264;" horiz-adv-x="776" 
d="M111 633v49l530 229v-63l-451 -191l451 -192v-62zM111 258v59h530v-59h-530z" />
    <glyph glyph-name="greaterequal" unicode="&#x2265;" horiz-adv-x="776" 
d="M666 682v-49l-531 -230v62l451 192l-451 191v63zM666 317v-59h-531v59h531z" />
    <glyph glyph-name="fi" unicode="&#xfb01;" horiz-adv-x="851" 
d="M522 1333v-61q-40 18 -90 18q-79 0 -128.5 -57t-49.5 -160v-164h219v-57h-219v-852h-61v852h-144v57h144v172q0 117 67.5 192t171.5 75q46 0 90 -15zM698 909v-909h-61v909h61zM715 1186q0 -21 -13 -35t-34 -14t-34 14t-13 35t13 35t34 14t34 -14t13 -35z" />
    <glyph glyph-name="fl" unicode="&#xfb02;" horiz-adv-x="851" 
d="M522 1333v-61q-40 18 -90 18q-79 0 -128.5 -57t-49.5 -160v-164h219v-57h-219v-852h-61v852h-144v57h144v172q0 117 67.5 192t171.5 75q46 0 90 -15zM698 1331v-1331h-61v1331h61z" />
    <glyph glyph-name="i.dot" horiz-adv-x="368" 
d="M215 909v-909h-61v909h61zM231 1186q0 -21 -13 -35t-34 -14t-34 14t-13 35t13 35t34 14t34 -14t13 -35z" />
    <glyph glyph-name="space_uni0326" 
d="M444 -348l70 143q-19 3 -31 16t-12 35q0 24 15 40t38 16t38.5 -16.5t15.5 -39.5t-19 -61l-65 -133h-50z" />
    <glyph glyph-name="space_uni0326.alt" 
d="M578 1331l-70 -143q19 -3 31 -16t12 -35q0 -24 -15 -40t-38 -16t-38.5 16.5t-15.5 39.5t19 61l65 133h50z" />
    <glyph glyph-name="space_dotbelowcomb" 
d="M559 -233q0 -21 -13 -35.5t-34 -14.5t-34 14.5t-13 35.5t13 35t34 14t34 -14t13 -35z" />
    <glyph glyph-name="caron.Slovak" 
d="M506 1010h-53l65 321h53z" />
    <glyph glyph-name="cedilla.alt" 
d="M481 -348h-59l113 254h59z" />
    <glyph glyph-name="grave.cap" 
d="M633 1358h-68l-174 239h68z" />
    <glyph glyph-name="acute.cap" 
d="M459 1358h-68l174 239h68z" />
    <glyph glyph-name="circumflex.cap" 
d="M539 1604l186 -240h-63l-150 188l-150 -188h-63l186 240h54z" />
    <glyph glyph-name="caron.cap" 
d="M485 1343l-186 240h63l150 -188l150 188h63l-186 -240h-54z" />
    <glyph glyph-name="tilde.cap" 
d="M700 1554h54q0 -91 -33.5 -142.5t-95.5 -51.5q-37 0 -70.5 22.5t-55 49t-48.5 49t-52 22.5q-37 0 -57 -37t-20 -100h-54q0 90 33.5 142.5t95.5 52.5q30 0 57.5 -15t47.5 -36t38.5 -42t40 -36t42.5 -15q37 0 57 37t20 100z" />
    <glyph glyph-name="macron.cap" 
d="M313 1372v55h396v-55h-396z" />
    <glyph glyph-name="breve.cap" 
d="M512 1358q-85 0 -137.5 61t-52.5 172h55q0 -86 37.5 -134t97.5 -48t97.5 48t37.5 134h55q0 -111 -52.5 -172t-137.5 -61z" />
    <glyph glyph-name="dotaccent.cap" 
d="M559 1452q0 -21 -13 -35t-34 -14t-34 14t-13 35t13 35t34 14t34 -14t13 -35z" />
    <glyph glyph-name="dieresis.cap" 
d="M348 1454q0 20 13.5 33.5t33.5 13.5t33.5 -13.5t13.5 -33.5t-13.5 -33.5t-33.5 -13.5t-33.5 13.5t-13.5 33.5zM582 1454q0 20 13.5 33.5t33.5 13.5t33.5 -13.5t13.5 -33.5t-13.5 -33.5t-33.5 -13.5t-33.5 13.5t-13.5 33.5z" />
    <glyph glyph-name="ring.cap" 
d="M670 1483q0 -66 -46 -112t-112 -46t-112 46t-46 112t46 111.5t112 45.5t112 -45.5t46 -111.5zM618 1483q0 44 -31 75t-75 31t-75 -31t-31 -75t31 -75.5t75 -31.5t75 31.5t31 75.5z" />
    <glyph glyph-name="hungarumlaut.cap" 
d="M356 1358h-63l162 239h63zM567 1358h-63l162 239h63z" />
    <glyph glyph-name="exclamdown.cap" horiz-adv-x="425" 
d="M160 1206q0 23 15.5 39.5t37.5 16.5t37.5 -16.5t15.5 -39.5t-15.5 -39t-37.5 -16t-37.5 16t-15.5 39zM180 0l8 864h50l8 -864h-66z" />
    <glyph glyph-name="questiondown.cap" horiz-adv-x="849" 
d="M449 1206q0 -23 -16 -39t-38 -16t-37.5 16t-15.5 39t15.5 39.5t37.5 16.5t38 -16.5t16 -39.5zM61 315q0 31 5.5 60.5t20.5 60t26 51.5t37 53.5t38 47t44.5 50t41.5 46.5q48 55 68 93.5t23 84.5h57q-4 -61 -28 -107t-75 -106q-12 -14 -40.5 -45t-45.5 -50.5t-40.5 -51
t-36.5 -58t-23 -61t-10 -68.5q0 -128 79.5 -200t211.5 -72q144 0 230 89.5t101 242.5h64q-18 -178 -122.5 -284.5t-272.5 -106.5q-161 0 -257 90.5t-96 240.5z" />
    <glyph glyph-name="guilsinglleft.cap" horiz-adv-x="358" 
d="M307 377h-67l-189 262l189 262h67l-188 -262z" />
    <glyph glyph-name="guilsinglright.cap" horiz-adv-x="358" 
d="M119 377h-68l189 262l-189 262h68l188 -262z" />
    <glyph glyph-name="guillemotleft.cap" horiz-adv-x="577" 
d="M307 377h-67l-189 262l189 262h67l-188 -262zM526 377h-67l-189 262l189 262h67l-188 -262z" />
    <glyph glyph-name="guillemotright.cap" horiz-adv-x="577" 
d="M338 377h-68l189 262l-189 262h68l188 -262zM119 377h-68l189 262l-189 262h68l188 -262z" />
    <glyph glyph-name="slash.cap" horiz-adv-x="587" 
d="M10 -131l508 1503h60l-508 -1503h-60z" />
    <glyph glyph-name="backslash.cap" horiz-adv-x="587" 
d="M70 1372l508 -1503h-60l-508 1503h60z" />
    <glyph glyph-name="bar.cap" horiz-adv-x="399" 
d="M170 -131v1503h59v-1503h-59z" />
    <glyph glyph-name="periodcentered.cap" horiz-adv-x="270" 
d="M82 614q0 23 15.5 39.5t37.5 16.5t37.5 -16.5t15.5 -39.5t-15.5 -39t-37.5 -16t-37.5 16t-15.5 39z" />
    <glyph glyph-name="bullet.cap" horiz-adv-x="665" 
d="M584 612q0 -108 -72.5 -179t-179.5 -71q-105 0 -177.5 71t-72.5 179t72.5 179t177.5 71q107 0 179.5 -71t72.5 -179z" />
    <glyph glyph-name="hyphen.cap" horiz-adv-x="657" 
d="M82 582v59h493v-59h-493z" />
    <glyph glyph-name="endash.cap" horiz-adv-x="972" 
d="M82 584v55h809v-55h-809z" />
    <glyph glyph-name="emdash.cap" horiz-adv-x="1732" 
d="M82 584v55h1569v-55h-1569z" />
    <glyph glyph-name="parenleft.cap" horiz-adv-x="671" 
d="M61 610q0 281 148.5 483.5t400.5 268.5v-57q-98 -24 -185 -83t-155 -146.5t-107.5 -208.5t-39.5 -257t39.5 -257t107.5 -208t155 -146t185 -83v-57q-253 66 -401 268t-148 483z" />
    <glyph glyph-name="parenright.cap" horiz-adv-x="671" 
d="M610 610q0 -281 -148 -483t-401 -268v57q98 24 185.5 83t155 146t107.5 208t40 257t-40 257t-107.5 208.5t-155 146.5t-185.5 83v57q252 -66 400.5 -268.5t148.5 -483.5z" />
    <glyph glyph-name="bracketleft.cap" horiz-adv-x="634" 
d="M229 1305v-1389h344v-57h-403v1503h403v-57h-344z" />
    <glyph glyph-name="bracketright.cap" horiz-adv-x="634" 
d="M406 -84v1389h-345v57h404v-1503h-404v57h345z" />
    <glyph glyph-name="braceleft.cap" horiz-adv-x="675" 
d="M276 477v-457q0 -104 97 -104h241v-57h-241q-68 0 -112 45t-44 116v457q0 105 -96 105h-80v57h80q96 0 96 104v457q0 72 44 117t112 45h241v-57h-241q-97 0 -97 -105v-457q0 -88 -75 -133q75 -48 75 -133z" />
    <glyph glyph-name="braceright.cap" horiz-adv-x="675" 
d="M399 20v457q0 84 76 133q-76 46 -76 133v457q0 105 -96 105h-242v57h242q68 0 112 -45t44 -117v-457q0 -104 96 -104h80v-57h-80q-96 0 -96 -105v-457q0 -71 -44 -116t-112 -45h-242v57h242q96 0 96 104z" />
    <glyph glyph-name="at.cap" horiz-adv-x="1585" 
d="M1106 965l-96 -541q-13 -74 17 -102.5t91 -28.5q140 0 233 116t93 324q0 234 -169 387.5t-435 153.5q-154 0 -286 -56.5t-221.5 -153t-140.5 -226t-51 -273.5q0 -129 38.5 -235.5t105 -180t156.5 -124t190.5 -74t210.5 -23.5q120 0 231.5 26t186.5 64v-59
q-191 -86 -418 -86q-119 0 -228 25t-206.5 79.5t-169.5 134t-114 196t-42 257.5q0 211 94 385t268.5 277.5t395.5 103.5q194 0 346 -78.5t234.5 -214.5t82.5 -305q0 -120 -32 -216t-86 -156t-122.5 -91.5t-144.5 -31.5q-73 0 -120.5 35t-51.5 98q-43 -53 -104.5 -90
t-128.5 -37q-127 0 -193.5 83t-66.5 214q0 111 44 210.5t129.5 163.5t192.5 64q74 0 129.5 -39t79.5 -92l21 117h57zM958 461l54 305q-26 71 -76 114.5t-115 43.5q-92 0 -165 -59t-109.5 -145.5t-36.5 -178.5q0 -113 55.5 -177.5t147.5 -64.5q134 0 245 162z" />
    <glyph glyph-name="Euro.lt" horiz-adv-x="1064" 
d="M39 709v55h160q27 238 147 374t293 136q138 0 237 -92t130 -246h-62q-36 131 -113.5 204.5t-191.5 73.5q-148 0 -248.5 -120t-126.5 -330h445l-15 -55h-436q-2 -27 -2 -80q0 -32 4 -90h408l-15 -56h-389q28 -206 128 -323t247 -117q114 0 191.5 74t113.5 205h62
q-31 -154 -130 -246t-237 -92q-170 0 -290 133t-150 366h-160v56h154q-3 43 -3 90q0 39 3 80h-154z" />
    <glyph glyph-name="dollar.lt" horiz-adv-x="1064" 
d="M510 -168v201q-138 8 -240 76t-139 186h68q41 -100 129 -152.5t211 -52.5q140 0 231.5 67.5t91.5 186.5q0 87 -49 144.5t-164 91.5l-225 65q-131 38 -197.5 102.5t-66.5 176.5q0 138 101 218t249 83v182h57v-184q136 -12 224.5 -84.5t121.5 -188.5h-63q-80 217 -332 217
q-128 0 -213.5 -64t-85.5 -179q0 -51 16.5 -88t52 -63t76.5 -43t105 -36l188 -55q142 -42 204.5 -113t62.5 -182q0 -138 -101.5 -220.5t-255.5 -90.5v-201h-57z" />
    <glyph glyph-name="cent.lt" horiz-adv-x="1064" 
d="M160 475q0 206 102.5 335t272.5 136v178h57v-180q117 -10 193.5 -82t103.5 -188h-68q-24 100 -93.5 157.5t-174.5 57.5q-147 0 -238.5 -113.5t-91.5 -300.5t91.5 -300.5t238.5 -113.5q105 0 174.5 57.5t93.5 157.5h68q-27 -116 -103.5 -188t-193.5 -82v-174h-57v172
q-170 6 -272.5 135t-102.5 336z" />
    <glyph glyph-name="sterling.lt" horiz-adv-x="1064" 
d="M358 864v-217h369v-53h-369v-346q0 -54 -14 -105t-37 -82h645v-61h-848v61h140q27 42 40 83.5t13 103.5v346h-193v53h193v217q0 193 94.5 301.5t249.5 108.5q131 0 212.5 -68t107.5 -186h-66q-46 194 -254 194q-128 0 -205.5 -90.5t-77.5 -259.5z" />
    <glyph glyph-name="yen.lt" horiz-adv-x="1064" 
d="M178 535v55h322l-418 667h72l378 -610l379 610h70l-418 -667h322v-55h-322v-170h322v-56h-322v-309h-63v309h-322v56h322v170h-322z" />
    <glyph glyph-name="florin.lt" horiz-adv-x="1064" 
d="M369 627v53h155l60 328q21 120 85.5 193t164.5 73q61 0 116 -25v-61q-60 29 -116 29q-75 0 -122.5 -57t-66.5 -161l-57 -319h221v-53h-229l-129 -727q-45 -248 -226 -248q-59 0 -112 24v62q60 -29 112 -29q72 0 110 51.5t54 147.5l127 719h-147z" />
    <glyph glyph-name="zero.lt" horiz-adv-x="1064" 
d="M532 -16q-135 0 -238 81t-158.5 227.5t-55.5 336.5t55.5 336.5t158.5 227.5t238 81t238.5 -81t159 -227.5t55.5 -336.5t-55.5 -336.5t-159 -227.5t-238.5 -81zM532 1214q-177 0 -283 -161.5t-106 -423.5t106 -424t283 -162t283.5 162t106.5 424q0 261 -106.5 423
t-283.5 162z" />
    <glyph glyph-name="one.lt" horiz-adv-x="1064" 
d="M143 0v61h404v1123l-387 -201v68l409 211h41v-1201h346v-61h-813z" />
    <glyph glyph-name="two.lt" horiz-adv-x="1064" 
d="M827 936q0 129 -83 203.5t-218 74.5q-152 0 -240 -90t-106 -245h-63q19 179 126.5 287t282.5 108q164 0 263.5 -94t99.5 -244q0 -31 -6.5 -62t-15 -55.5t-27.5 -56.5t-31.5 -51.5t-41 -53t-42 -49t-48 -53t-46.5 -51.5l-430 -443h723v-61h-815v45l485 510q46 48 66 69.5
t54 60.5t49 63t33 57.5t24.5 65t6.5 65.5z" />
    <glyph glyph-name="three.lt" horiz-adv-x="1064" 
d="M424 618v60h104q128 0 214.5 72.5t86.5 193.5t-88 195.5t-227 74.5q-124 0 -213.5 -71.5t-118.5 -196.5h-65q28 149 136.5 238.5t260.5 89.5q175 0 278 -91.5t103 -238.5q0 -116 -77 -198.5t-187 -96.5q121 -11 207 -93.5t86 -217.5q0 -150 -108.5 -252t-293.5 -102
q-173 0 -284.5 90.5t-137.5 249.5h66q29 -134 122.5 -207.5t233.5 -73.5q153 0 244.5 80.5t91.5 214.5q0 128 -96.5 204t-233.5 76h-104z" />
    <glyph glyph-name="four.lt" horiz-adv-x="1064" 
d="M649 1257l-495 -870h524v318h61v-318h248v-61h-248v-326h-61v326h-600v55l502 876h69z" />
    <glyph glyph-name="five.lt" horiz-adv-x="1064" 
d="M528 727q-84 0 -153 -35t-115 -92h-61v657h673v-61h-612v-518q45 45 115 76.5t153 31.5q172 0 289 -118t117 -285q0 -107 -53 -198.5t-146.5 -146t-206.5 -54.5q-173 0 -284 88t-146 254h66q34 -139 126.5 -211t237.5 -72q144 0 242 99t98 241t-98 243t-242 101z" />
    <glyph glyph-name="six.lt" horiz-adv-x="1064" 
d="M211 401q0 -151 102 -254.5t252 -103.5q149 0 253 103t104 255q0 151 -104 254t-253 103q-150 0 -252 -102.5t-102 -254.5zM950 979h-63q-78 235 -316 235q-170 0 -284.5 -160t-114.5 -438q0 -52 6 -114q27 141 136.5 228t250.5 87q174 0 296 -120t122 -296t-122 -296.5
t-296 -120.5q-261 0 -379 237q-73 150 -73 395q0 158 36.5 285t99.5 207.5t145.5 123t176.5 42.5q153 0 248 -79.5t131 -215.5z" />
    <glyph glyph-name="seven.lt" horiz-adv-x="1064" 
d="M948 1202l-475 -1202h-65l475 1196h-789v61h854v-55z" />
    <glyph glyph-name="eight.lt" horiz-adv-x="1064" 
d="M530 41q160 0 264.5 88t104.5 215t-104.5 215t-264.5 88q-159 0 -261.5 -88t-102.5 -215t102.5 -215t261.5 -88zM530 705q137 0 223.5 75t86.5 181t-86.5 181t-223.5 75q-135 0 -221 -75t-86 -181t86 -181t221 -75zM530 -16q-185 0 -305.5 103.5t-120.5 256.5
q0 116 75 207.5t202 126.5q-101 33 -160 110.5t-59 172.5q0 131 103 222t265 91q165 0 268 -91t103 -222q0 -95 -59 -172.5t-160 -110.5q127 -35 203 -126.5t76 -207.5q0 -152 -122 -256t-309 -104z" />
    <glyph glyph-name="nine.lt" horiz-adv-x="1064" 
d="M854 856q0 151 -102 254.5t-252 103.5q-149 0 -253 -103t-104 -255q0 -151 104 -253.5t253 -102.5q150 0 252 102t102 254zM115 279h63q79 -236 316 -236q170 0 284.5 160t114.5 438q0 54 -6 115q-27 -141 -136.5 -228.5t-250.5 -87.5q-174 0 -296 120t-122 296t122 297
t296 121q136 0 230 -64t149 -174q73 -150 73 -395q0 -158 -36.5 -285t-99.5 -207t-145.5 -122.5t-176.5 -42.5q-153 0 -248 79.5t-131 215.5z" />
    <glyph glyph-name="period.tab" horiz-adv-x="532" 
d="M213 51q0 23 15.5 39t37.5 16t37.5 -16t15.5 -39t-15.5 -39t-37.5 -16t-37.5 16t-15.5 39z" />
    <glyph glyph-name="comma.tab" horiz-adv-x="532" 
d="M160 -199l96 199q-19 3 -31 16t-12 35q0 23 15 39t38 16t38 -16t15 -39q0 -25 -18 -61l-92 -189h-49z" />
    <glyph glyph-name="colon.tab" horiz-adv-x="532" 
d="M213 51q0 23 15.5 39t37.5 16t37.5 -16t15.5 -39t-15.5 -39t-37.5 -16t-37.5 16t-15.5 39zM213 748q0 23 15.5 39t37.5 16t37.5 -16t15.5 -39t-15.5 -39.5t-37.5 -16.5t-37.5 16.5t-15.5 39.5z" />
    <glyph glyph-name="semicolon.tab" horiz-adv-x="532" 
d="M160 -199l96 199q-19 3 -31 16t-12 35q0 23 15 39t38 16t38 -16t15 -39q0 -25 -18 -61l-92 -189h-49zM213 748q0 23 15.5 39t37.5 16t37.5 -16t15.5 -39t-15.5 -39.5t-37.5 -16.5t-37.5 16.5t-15.5 39.5z" />
    <glyph glyph-name="space.tab" horiz-adv-x="532" 
 />
    <glyph glyph-name="percent.lt" horiz-adv-x="1064" 
d="M37 1022q0 104 73 178t177 74t178 -74t74 -178t-74 -177t-178 -73t-177 73t-73 177zM94 1022q0 -80 57 -136.5t136 -56.5q81 0 137.5 56.5t56.5 136.5q0 82 -56 138.5t-138 56.5q-80 0 -136.5 -57t-56.5 -138zM1030 236q0 -104 -73 -178t-177 -74t-178 74t-74 178
t73.5 176.5t178.5 72.5q104 0 177 -72.5t73 -176.5zM973 236q0 79 -56.5 135.5t-136.5 56.5q-81 0 -137.5 -56t-56.5 -136q0 -82 56 -138.5t138 -56.5q80 0 136.5 57t56.5 138zM84 0l838 1257h61l-838 -1257h-61z" />
    <glyph glyph-name="perthousand.lt" horiz-adv-x="1638" 
d="M84 0l838 1257h61l-838 -1257h-61zM94 1022q0 -80 57 -136.5t136 -56.5q81 0 137.5 56.5t56.5 136.5q0 82 -56 138.5t-138 56.5q-80 0 -136.5 -57t-56.5 -138zM1030 236q0 -104 -73 -178t-177 -74t-178 74t-74 178t73.5 176.5t178.5 72.5q104 0 177 -72.5t73 -176.5z
M973 236q0 79 -56.5 135.5t-136.5 56.5q-81 0 -137.5 -56t-56.5 -136q0 -82 56 -138.5t138 -56.5q80 0 136.5 57t56.5 138zM37 1022q0 104 73 178t177 74t178 -74t74 -178t-74 -177t-178 -73t-177 73t-73 177zM1604 236q0 -104 -73 -178t-177 -74t-178 74t-74 178
t73.5 176.5t178.5 72.5q104 0 177 -72.5t73 -176.5zM1546 236q0 80 -56 136t-136 56q-82 0 -138.5 -56t-56.5 -136q0 -82 56.5 -138.5t138.5 -56.5q80 0 136 56.5t56 138.5z" />
    <glyph glyph-name="plus.lt" horiz-adv-x="1064" 
d="M502 963h59v-334h334v-60h-334v-333h-59v333h-334v60h334v334z" />
    <glyph glyph-name="minus.lt" horiz-adv-x="1064" 
d="M168 569v60h727v-60h-727z" />
    <glyph glyph-name="multiply.lt" horiz-adv-x="1064" 
d="M494 594l-248 250l41 39l245 -250l246 250l41 -39l-246 -250l246 -250l-41 -39l-246 248l-245 -248l-41 39z" />
    <glyph glyph-name="divide.lt" horiz-adv-x="1064" 
d="M168 569v60h727v-60h-727zM477 901q0 23 15.5 39t37.5 16t38 -16t16 -39t-16 -39t-38 -16t-37.5 16t-15.5 39zM477 299q0 23 15.5 39t37.5 16t38 -16t16 -39t-16 -39t-38 -16t-37.5 16t-15.5 39z" />
    <glyph glyph-name="equal.lt" horiz-adv-x="1064" 
d="M168 449v59h729v-59h-729zM168 694v60h729v-60h-729z" />
    <glyph glyph-name="less.lt" horiz-adv-x="1064" 
d="M266 571v50l531 305v-66l-467 -264l467 -264v-66z" />
    <glyph glyph-name="greater.lt" horiz-adv-x="1064" 
d="M797 621v-50l-531 -305v66l467 264l-467 264v66z" />
    <glyph glyph-name="plusminus.lt" horiz-adv-x="1064" 
d="M502 979h59v-252h334v-59h-334v-252h-59v252h-334v59h334v252zM168 238v59h727v-59h-727z" />
    <glyph glyph-name="lessequal.lt" horiz-adv-x="1064" 
d="M266 633v49l531 229v-63l-451 -191l451 -192v-62zM266 258v59h531v-59h-531z" />
    <glyph glyph-name="greaterequal.lt" horiz-adv-x="1064" 
d="M797 682v-49l-531 -230v62l451 192l-451 191v63zM797 317v-59h-531v59h531z" />
    <glyph glyph-name="notequal.lt" horiz-adv-x="1064" 
d="M168 694v58h450l146 178h72l-146 -178h207v-58h-252l-151 -186h403v-57h-451l-145 -181h-72l146 181h-207v57h254l151 186h-405z" />
    <glyph glyph-name="approxequal.lt" horiz-adv-x="1064" 
d="M168 616v70q95 98 194 98q53 0 111.5 -26t116 -52t106.5 -26q101 0 201 106v-69q-96 -99 -201 -99q-42 0 -88 16.5t-80.5 36t-80 36t-85.5 16.5q-90 0 -194 -107zM168 416v69q96 99 194 99q42 0 89 -16.5t81 -36t79 -36t85 -16.5q100 0 201 107v-70q-95 -98 -201 -98
q-52 0 -110.5 26t-116 52t-107.5 26q-91 0 -194 -106z" />
    </font>
</defs>
</svg>
