<?xml version="1.0" standalone="no"?>
<!DOCTYPE svg PUBLIC "-//W3C//DTD SVG 1.1//EN" "http://www.w3.org/Graphics/SVG/1.1/DTD/svg11.dtd" >
<svg xmlns="http://www.w3.org/2000/svg" xmlns:xlink="http://www.w3.org/1999/xlink" version="1.1">
<metadata>
Created by FontForge 20170731 at Thu Dec  8 15:23:23 2022
 By Aleksey,,,
(c) 2011 Klim Type Foundry. All rights reserved.
</metadata>
<defs>
<font id="Calibre-Semibold" horiz-adv-x="1064" >
  <font-face 
    font-family="Calibre Semibold"
    font-weight="600"
    font-stretch="normal"
    units-per-em="2048"
    panose-1="2 11 7 3 3 2 2 6 2 3"
    ascent="1536"
    descent="-512"
    x-height="915"
    cap-height="1257"
    bbox="-246 -461 1960 1855"
    underline-thickness="61"
    underline-position="-204"
    unicode-range="U+0020-FB02"
  />
<missing-glyph horiz-adv-x="1245" 
 />
    <glyph glyph-name="f_f" unicode="ff" horiz-adv-x="1263" 
d="M1243 1325v-215q-38 25 -90 25q-58 0 -91.5 -32.5t-33.5 -94.5v-93h191v-204h-191v-711h-250v711h-346v-711h-250v711h-149v204h149v97q0 153 88 239t236 86q86 0 141 -24v-215q-36 24 -90 24q-58 0 -91.5 -31.5t-33.5 -91.5v-84h346v109q0 153 88.5 239.5t235.5 86.5
q83 0 141 -25z" />
    <glyph glyph-name=".notdef" horiz-adv-x="1245" 
 />
    <glyph glyph-name=".null" horiz-adv-x="0" 
 />
    <glyph glyph-name="nonmarkingreturn" horiz-adv-x="682" 
 />
    <glyph glyph-name="space" unicode=" " horiz-adv-x="434" 
 />
    <glyph glyph-name="exclam" unicode="!" horiz-adv-x="444" 
d="M61 143q0 67 46.5 113.5t113.5 46.5q68 0 115 -46.5t47 -113.5q0 -66 -47 -111.5t-115 -45.5q-67 0 -113.5 45.5t-46.5 111.5zM129 406l-61 851h309l-62 -851h-186z" />
    <glyph glyph-name="quotedbl" unicode="&#x22;" horiz-adv-x="669" 
d="M78 750v507h207v-507h-207zM385 750v507h207v-507h-207z" />
    <glyph glyph-name="numbersign" unicode="#" horiz-adv-x="1261" 
d="M1130 502l-36 -176h-213l-78 -326h-203l78 326h-242l-78 -326h-198l78 326h-197l39 176h199l61 254h-209l37 176h213l78 325h200l-79 -325h241l80 325h201l-78 -325h197l-39 -176h-199l-61 -254h208zM539 756l-62 -254h242l61 254h-241z" />
    <glyph glyph-name="dollar" unicode="$" horiz-adv-x="1028" 
d="M420 -182v198q-152 25 -249.5 116t-123.5 237h254q51 -152 234 -152q88 0 139 38t51 107q0 57 -35 89t-115 51l-200 49q-299 70 -299 334q0 144 94 241t250 117v187h217v-195q132 -30 213 -115.5t108 -214.5h-243q-22 62 -76.5 99.5t-140.5 37.5q-82 0 -130.5 -38
t-48.5 -101q0 -51 32.5 -82t99.5 -49l213 -51q146 -36 226.5 -122.5t80.5 -221.5q0 -146 -91 -241t-243 -120v-198h-217z" />
    <glyph glyph-name="percent" unicode="%" horiz-adv-x="1372" 
d="M211 0l778 1257h172l-778 -1257h-172zM225 985q0 -50 35 -84.5t86 -34.5q50 0 85.5 35t35.5 84q0 51 -35.5 87t-85.5 36q-51 0 -86 -36t-35 -87zM1317 272q0 -122 -85 -207t-206 -85t-206 85t-85 207q0 120 85 204.5t206 84.5t206 -84.5t85 -204.5zM637 985
q0 -120 -85 -204.5t-206 -84.5t-206 84.5t-85 204.5q0 122 85 207.5t206 85.5t206 -85.5t85 -207.5zM1147 272q0 50 -35 84.5t-86 34.5t-87 -35t-36 -84q0 -51 36 -86.5t87 -35.5t86 35.5t35 86.5z" />
    <glyph glyph-name="ampersand" unicode="&#x26;" horiz-adv-x="1243" 
d="M956 952h-249q0 51 -33 88t-92 37q-60 0 -101 -37.5t-41 -97.5q0 -34 18 -70t36 -57t55 -61l282 -314q34 105 37 209h230q-3 -205 -111 -381l242 -268h-307l-88 96q-147 -116 -334 -116q-192 0 -310 108t-118 285q0 105 57 193t150 139q-82 114 -82 233
q0 155 107.5 247.5t277.5 92.5q171 0 270 -92.5t104 -233.5zM502 182q108 0 194 64l-282 307q-48 -25 -77.5 -73t-29.5 -107q0 -85 53 -138t142 -53z" />
    <glyph glyph-name="quotesingle" unicode="'" horiz-adv-x="372" 
d="M78 750v507h217v-507h-217z" />
    <glyph glyph-name="parenleft" unicode="(" horiz-adv-x="665" 
d="M61 580q0 285 152 486.5t412 264.5v-256q-144 -40 -233 -170t-89 -325t89 -325.5t233 -170.5v-256q-260 63 -412 265t-152 487z" />
    <glyph glyph-name="parenright" unicode=")" horiz-adv-x="665" 
d="M604 580q0 -285 -151.5 -487t-411.5 -265v256q144 40 232.5 170.5t88.5 325.5t-88.5 325t-232.5 170v256q260 -63 411.5 -264.5t151.5 -486.5z" />
    <glyph glyph-name="asterisk" unicode="*" horiz-adv-x="708" 
d="M223 1024l-168 96l66 115l168 -98v194h131v-194l168 98l65 -115l-170 -96l170 -96l-65 -115l-168 98v-194h-131v194l-168 -98l-66 115z" />
    <glyph glyph-name="plus" unicode="+" horiz-adv-x="1146" 
d="M477 1055h195v-344h344v-197h-344v-342h-195v342h-346v197h346v344z" />
    <glyph glyph-name="comma" unicode="," horiz-adv-x="430" 
d="M29 -223l149 229q-54 9 -88.5 48t-34.5 100q0 67 46 111t114 44q69 0 114.5 -46t45.5 -128q0 -86 -66 -184l-116 -174h-164z" />
    <glyph glyph-name="hyphen" unicode="-" horiz-adv-x="649" 
d="M78 426v221h493v-221h-493z" />
    <glyph glyph-name="period" unicode="." horiz-adv-x="430" 
d="M55 150q0 69 46 115t114 46t114 -46t46 -115t-46.5 -116.5t-113.5 -47.5t-113.5 47.5t-46.5 116.5z" />
    <glyph glyph-name="slash" unicode="/" horiz-adv-x="763" 
d="M10 -172l508 1503h236l-508 -1503h-236z" />
    <glyph glyph-name="zero" unicode="0" horiz-adv-x="1122" 
d="M561 -20q-146 0 -258.5 82t-174.5 229.5t-62 337.5t62 337.5t174.5 229.5t258.5 82t259 -82t175 -229.5t62 -337.5t-62 -337.5t-175 -229.5t-259 -82zM561 1044q-121 0 -180 -114t-59 -301q0 -121 23.5 -212t78.5 -147.5t137 -56.5q120 0 180 115t60 301t-60 300.5
t-180 114.5z" />
    <glyph glyph-name="one" unicode="1" horiz-adv-x="706" 
d="M584 1257v-1257h-256v958l-293 -145v256l383 188h166z" />
    <glyph glyph-name="two" unicode="2" horiz-adv-x="980" 
d="M647 893q0 67 -43.5 109t-116.5 42q-76 0 -119.5 -48.5t-48.5 -125.5h-270q19 179 136.5 293.5t299.5 114.5q196 0 309 -101.5t113 -273.5q0 -46 -15.5 -93t-33.5 -81t-59.5 -85t-64 -75.5t-77.5 -81.5l-241 -260h506v-227h-871v170l400 420q114 124 145 170
q51 73 51 133z" />
    <glyph glyph-name="three" unicode="3" horiz-adv-x="970" 
d="M387 539v202h72q83 0 135.5 41.5t52.5 116.5q0 68 -44.5 112t-119.5 44q-83 0 -130.5 -48t-53.5 -124h-254q19 172 137.5 283.5t302.5 111.5q189 0 299.5 -101.5t110.5 -265.5q0 -90 -43 -164.5t-111 -107.5q85 -37 129.5 -110.5t44.5 -163.5q0 -168 -116.5 -276.5
t-313.5 -108.5q-201 0 -327.5 112.5t-137.5 296.5h259q9 -86 61 -136t143 -50q80 0 131.5 46t51.5 120q0 78 -55 124t-144 46h-80z" />
    <glyph glyph-name="four" unicode="4" 
d="M733 1257l-409 -792h278v260h234v-260h190v-215h-190v-250h-234v250h-559v188l434 819h256z" />
    <glyph glyph-name="five" unicode="5" horiz-adv-x="995" 
d="M506 614q-107 0 -180 -84h-205v727h737v-227h-524v-256q33 23 87.5 40t115.5 17q182 0 293.5 -116.5t111.5 -304.5q0 -192 -120 -311t-312 -119q-197 0 -320 111t-137 298h254q11 -86 63 -136t140 -50q85 0 135.5 57.5t50.5 149.5q0 91 -51 147.5t-139 56.5z" />
    <glyph glyph-name="six" unicode="6" horiz-adv-x="1044" 
d="M971 940h-254q-40 123 -166 123q-72 0 -129 -51.5t-86 -131.5t-29 -169v-19q31 60 102 96.5t162 36.5q185 0 297.5 -119.5t112.5 -293.5q0 -185 -120 -308.5t-324 -123.5q-122 0 -220.5 57t-160.5 170q-88 155 -88 395q0 196 57 348.5t167 240t257 87.5q175 0 281 -88
t141 -250zM330 406q0 -94 57.5 -152.5t151.5 -58.5q91 0 148.5 58.5t57.5 152.5q0 98 -57.5 157.5t-148.5 59.5q-94 0 -151.5 -59.5t-57.5 -157.5z" />
    <glyph glyph-name="seven" unicode="7" horiz-adv-x="935" 
d="M883 1071l-412 -1071h-264l403 1028h-577v229h850v-186z" />
    <glyph glyph-name="eight" unicode="8" horiz-adv-x="1021" 
d="M512 186q87 0 143 48.5t56 130.5q0 83 -56 130.5t-143 47.5q-89 0 -145 -47.5t-56 -130.5q0 -82 56.5 -130.5t144.5 -48.5zM512 756q72 0 121 43t49 114q0 74 -49 118t-121 44q-73 0 -122.5 -44t-49.5 -118q0 -71 49.5 -114t122.5 -43zM512 -20q-195 0 -324 98.5
t-129 265.5q0 115 63 195t157 106q-81 35 -131 108.5t-50 170.5q0 111 58 192.5t150.5 121.5t205.5 40q112 0 204 -40t150 -122t58 -192q0 -97 -50 -170.5t-131 -108.5q94 -26 157 -106t63 -195q0 -167 -128.5 -265.5t-322.5 -98.5z" />
    <glyph glyph-name="nine" unicode="9" horiz-adv-x="1044" 
d="M74 317h254q40 -122 166 -122q72 0 128.5 51.5t85.5 131.5t29 169v18q-31 -60 -102 -96.5t-162 -36.5q-185 0 -297.5 120t-112.5 294q0 89 30.5 167.5t86.5 137.5t140.5 93t187.5 34q122 0 220.5 -57t160.5 -170q88 -155 88 -396q0 -196 -57 -348t-167 -239.5t-257 -87.5
q-175 0 -281.5 87.5t-140.5 249.5zM715 852q0 94 -57.5 152.5t-151.5 58.5q-91 0 -149 -59t-58 -152q0 -98 58 -157.5t149 -59.5q94 0 151.5 59.5t57.5 157.5z" />
    <glyph glyph-name="colon" unicode=":" horiz-adv-x="430" 
d="M55 150q0 69 46 115t114 46t114 -46t46 -115t-46.5 -116.5t-113.5 -47.5t-113.5 47.5t-46.5 116.5zM55 733q0 69 46 115.5t114 46.5t114 -46.5t46 -115.5t-46.5 -116.5t-113.5 -47.5t-113.5 47.5t-46.5 116.5z" />
    <glyph glyph-name="semicolon" unicode=";" horiz-adv-x="430" 
d="M29 -223l149 229q-54 9 -88.5 48t-34.5 100q0 67 46 111t114 44q69 0 114.5 -46t45.5 -128q0 -86 -66 -184l-116 -174h-164zM55 733q0 69 46 115.5t114 46.5t114 -46.5t46 -115.5t-46.5 -116.5t-113.5 -47.5t-113.5 47.5t-46.5 116.5z" />
    <glyph glyph-name="less" unicode="&#x3c;" horiz-adv-x="903" 
d="M113 483v252l671 312v-222l-491 -217l491 -215v-223z" />
    <glyph glyph-name="equal" unicode="=" horiz-adv-x="1179" 
d="M150 358v179h882v-179h-882zM150 692v180h882v-180h-882z" />
    <glyph glyph-name="greater" unicode="&#x3e;" horiz-adv-x="903" 
d="M791 735v-252l-674 -313v223l491 215l-491 217v222z" />
    <glyph glyph-name="question" unicode="?" horiz-adv-x="933" 
d="M317 143q0 68 47 114t115 46t115 -46t47 -114q0 -66 -47 -111.5t-115 -45.5t-115 45.5t-47 111.5zM893 907q0 -32 -5.5 -62t-20 -59.5t-26 -50.5t-36.5 -51.5t-37 -44t-42.5 -46.5t-39.5 -42q-74 -80 -74 -145h-252q4 72 27.5 121t87.5 124q11 12 52 56t55 62.5t30.5 54
t16.5 69.5q0 68 -42.5 109.5t-115.5 41.5q-75 0 -118 -49t-48 -125h-270q19 180 137.5 294t304.5 114q192 0 304 -100.5t112 -270.5z" />
    <glyph glyph-name="at" unicode="@" horiz-adv-x="1572" 
d="M1176 791l-84 -484q-8 -50 6 -73t55 -23q95 0 152 93.5t57 256.5q0 212 -147.5 335.5t-380.5 123.5q-274 0 -445.5 -175.5t-171.5 -455.5q0 -124 38.5 -222.5t99.5 -160t144 -102t166 -56.5t171 -16q236 0 458 98v-149q-83 -41 -204.5 -68.5t-253.5 -27.5
q-123 0 -236 25.5t-214 81t-175.5 136t-118 199t-43.5 262.5q0 160 57.5 303t158.5 248.5t249 167t320 61.5q150 0 279 -46.5t218.5 -127.5t140 -193.5t50.5 -240.5q0 -98 -22.5 -180.5t-61.5 -140.5t-92 -98.5t-113.5 -59.5t-126.5 -19q-73 0 -133.5 28.5t-95.5 80.5
q-28 -49 -84 -77.5t-115 -28.5q-126 0 -202.5 88t-76.5 221q0 176 108 305t271 129q58 0 105.5 -22t68.5 -54l13 58h211zM881 340l37 205q-9 33 -41.5 54.5t-75.5 21.5q-77 0 -127.5 -68t-50.5 -162q0 -61 30.5 -98t87.5 -37q86 0 140 84z" />
    <glyph glyph-name="A" unicode="A" horiz-adv-x="1284" 
d="M512 1257h260l481 -1257h-266l-113 303h-471l-110 -303h-262zM639 942l-154 -418h308z" />
    <glyph glyph-name="B" unicode="B" horiz-adv-x="1132" 
d="M860 649q90 -30 147.5 -110.5t57.5 -182.5q0 -171 -111.5 -263.5t-310.5 -92.5h-522v1257h481q200 0 312 -88t112 -254q0 -98 -47 -169t-119 -97zM373 741h213q190 0 190 150q0 145 -190 145h-213v-295zM373 537v-316h248q91 0 139.5 42.5t48.5 115.5q0 74 -48.5 116
t-139.5 42h-248z" />
    <glyph glyph-name="C" unicode="C" horiz-adv-x="1226" 
d="M59 629q0 286 166 467.5t420 181.5q217 0 353.5 -115.5t172.5 -310.5h-260q-72 192 -266 192q-148 0 -233.5 -115.5t-85.5 -299.5q0 -183 85.5 -299.5t233.5 -116.5q194 0 266 195h260q-36 -196 -172.5 -312t-353.5 -116q-254 0 -420 181.5t-166 467.5z" />
    <glyph glyph-name="D" unicode="D" horiz-adv-x="1247" 
d="M381 231h174q178 0 274.5 106.5t96.5 291.5q0 187 -96.5 293t-274.5 106h-174v-797zM121 0v1257h444q285 0 453 -170t168 -458t-168 -458.5t-453 -170.5h-444z" />
    <glyph glyph-name="E" unicode="E" horiz-adv-x="1056" 
d="M121 1257h854v-229h-596v-274h541v-224h-541v-299h596v-231h-854v1257z" />
    <glyph glyph-name="F" unicode="F" horiz-adv-x="1026" 
d="M381 0h-260v1257h837v-229h-577v-319h534v-228h-534v-481z" />
    <glyph glyph-name="G" unicode="G" horiz-adv-x="1271" 
d="M956 451h-239v208h495v-110q0 -258 -152.5 -413.5t-393.5 -155.5q-174 0 -312 81.5t-216.5 230t-78.5 337.5q0 142 46 263.5t125.5 206t190.5 132t238 47.5q221 0 359 -115.5t174 -310.5h-264q-35 94 -99.5 143t-169.5 49q-153 0 -243 -115.5t-90 -299.5q0 -186 92 -302
t248 -116q118 0 193 64.5t97 175.5z" />
    <glyph glyph-name="H" unicode="H" horiz-adv-x="1335" 
d="M952 1257h262v-1257h-262v528h-569v-528h-262v1257h262v-499h569v499z" />
    <glyph glyph-name="I" unicode="I" horiz-adv-x="501" 
d="M383 1257v-1257h-262v1257h262z" />
    <glyph glyph-name="J" unicode="J" horiz-adv-x="1042" 
d="M31 399h270q8 -88 54 -135t130 -47q99 0 147 59t48 181v800h262v-802q0 -233 -123 -354t-332 -121q-208 0 -326 114t-130 305z" />
    <glyph glyph-name="K" unicode="K" horiz-adv-x="1214" 
d="M383 1257v-565l473 565h318l-480 -563l498 -694h-318l-372 514l-119 -141v-373h-262v1257h262z" />
    <glyph glyph-name="L" unicode="L" horiz-adv-x="1038" 
d="M121 0v1257h262v-1026h586v-231h-848z" />
    <glyph glyph-name="M" unicode="M" horiz-adv-x="1529" 
d="M856 0h-178l-311 821v-821h-246v1257h311l336 -886l334 886h307v-1257h-248v821z" />
    <glyph glyph-name="N" unicode="N" horiz-adv-x="1294" 
d="M1174 1257v-1257h-207l-594 838v-838h-252v1257h246l555 -794v794h252z" />
    <glyph glyph-name="O" unicode="O" horiz-adv-x="1310" 
d="M1249 629q0 -186 -75.5 -334t-212 -231.5t-308.5 -83.5t-308 83.5t-211 231.5t-75 334q0 187 75 335t210.5 231t308.5 83t309 -83t211.5 -231.5t75.5 -334.5zM985 629q0 185 -91 300t-241 115q-148 0 -237.5 -114.5t-89.5 -300.5t89.5 -301t237.5 -115q150 0 241 115
t91 301z" />
    <glyph glyph-name="P" unicode="P" horiz-adv-x="1130" 
d="M633 436h-252v-436h-260v1257h512q204 0 323 -107t119 -304q0 -196 -119.5 -303t-322.5 -107zM817 846q0 87 -51 137.5t-150 50.5h-235v-375h235q98 0 149.5 51t51.5 136z" />
    <glyph glyph-name="Q" unicode="Q" horiz-adv-x="1308" 
d="M1012 -88l-103 127q-115 -59 -256 -59q-172 0 -308 83.5t-211 231.5t-75 334q0 187 75 335t210.5 231t308.5 83t309 -83t211.5 -231.5t75.5 -334.5q0 -275 -170 -463l101 -123zM985 629q0 185 -91 300t-241 115q-148 0 -237.5 -114.5t-89.5 -300.5t89.5 -304t237.5 -118
q63 0 109 14l-103 129l168 129l99 -123q59 103 59 273z" />
    <glyph glyph-name="R" unicode="R" horiz-adv-x="1153" 
d="M518 469h-137v-469h-260v1257h518q202 0 321 -104.5t119 -294.5q0 -148 -75.5 -243t-210.5 -128l331 -487h-295zM381 1034v-350h242q96 0 147 47t51 127q0 81 -51 128.5t-147 47.5h-242z" />
    <glyph glyph-name="S" unicode="S" horiz-adv-x="1085" 
d="M35 358h270q51 -161 250 -161q97 0 154 41.5t57 115.5q0 57 -36 90t-118 52l-225 51q-319 73 -319 344q0 170 127 278.5t325 108.5q208 0 335 -99.5t159 -265.5h-260q-23 68 -81 109t-151 41q-90 0 -144 -40.5t-54 -107.5q0 -103 141 -137l229 -53q158 -36 244 -125.5
t86 -228.5q0 -179 -131.5 -285t-335.5 -106q-212 0 -351 99.5t-171 278.5z" />
    <glyph glyph-name="T" unicode="T" horiz-adv-x="1177" 
d="M53 1028v229h1073v-229h-405v-1028h-264v1028h-404z" />
    <glyph glyph-name="U" unicode="U" horiz-adv-x="1249" 
d="M625 -20q-241 0 -382 136t-141 390v751h263v-725q0 -159 67 -238t193 -79t193 79t67 238v725h262v-751q0 -254 -140 -390t-382 -136z" />
    <glyph glyph-name="V" unicode="V" horiz-adv-x="1257" 
d="M756 0h-254l-471 1257h276l326 -909l325 909h271z" />
    <glyph glyph-name="W" unicode="W" horiz-adv-x="1626" 
d="M715 1257h205l217 -845l206 845h259l-328 -1257h-240l-221 829l-221 -829h-240l-327 1257h264l205 -845z" />
    <glyph glyph-name="X" unicode="X" horiz-adv-x="1200" 
d="M1165 1257l-415 -612l436 -645h-295l-295 436l-293 -436h-289l437 641l-416 616h297l270 -407l277 407h286z" />
    <glyph glyph-name="Y" unicode="Y" horiz-adv-x="1214" 
d="M612 725l303 532h277l-457 -780v-477h-260v477l-452 780h284z" />
    <glyph glyph-name="Z" unicode="Z" horiz-adv-x="1134" 
d="M1053 231v-231h-971v190l631 838h-621v229h952v-188l-626 -838h635z" />
    <glyph glyph-name="bracketleft" unicode="[" horiz-adv-x="659" 
d="M358 1112v-1065h260v-219h-497v1503h497v-219h-260z" />
    <glyph glyph-name="backslash" unicode="\" horiz-adv-x="763" 
d="M246 1331l508 -1503h-236l-508 1503h236z" />
    <glyph glyph-name="bracketright" unicode="]" horiz-adv-x="659" 
d="M301 47v1065h-260v219h498v-1503h-498v219h260z" />
    <glyph glyph-name="asciicircum" unicode="^" horiz-adv-x="837" 
d="M303 1257h232l282 -450h-237l-160 258l-162 -258h-238z" />
    <glyph glyph-name="underscore" unicode="_" horiz-adv-x="780" 
d="M41 -293v207h698v-207h-698z" />
    <glyph glyph-name="grave" unicode="`" horiz-adv-x="1024" 
d="M719 1040h-232l-182 291h252z" />
    <glyph glyph-name="a" unicode="a" horiz-adv-x="958" 
d="M862 0h-244v49q-25 -25 -88.5 -45t-134.5 -20q-144 0 -242 80t-98 217q0 129 102 210.5t253 81.5q58 0 118.5 -16t89.5 -37v68q0 62 -38 101.5t-111 39.5q-103 0 -135 -86h-242q21 127 126 210t259 83q182 0 283.5 -93.5t101.5 -258.5v-584zM618 250v65q-17 36 -63 58
t-102 22q-66 0 -114 -28.5t-48 -83.5q0 -56 47.5 -84.5t114.5 -28.5q56 0 102 22t63 58z" />
    <glyph glyph-name="b" unicode="b" horiz-adv-x="1062" 
d="M365 76v-76h-256v1331h256v-491q33 39 96 67.5t133 28.5q129 0 225 -65.5t143.5 -173t47.5 -240.5t-47.5 -240t-143.5 -172t-225 -65q-70 0 -133 28.5t-96 67.5zM365 608v-301q22 -48 68.5 -77t103.5 -29q100 0 159.5 72t59.5 184q0 113 -59 185.5t-160 72.5
q-55 0 -102.5 -30t-69.5 -77z" />
    <glyph glyph-name="c" unicode="c" horiz-adv-x="940" 
d="M53 457q0 213 123 346t318 133q168 0 274 -90t127 -240h-250q-11 53 -50.5 83t-100.5 30q-87 0 -138 -72t-51 -190q0 -117 51 -188.5t138 -71.5q61 0 100.5 29.5t50.5 82.5h250q-21 -150 -126.5 -239.5t-274.5 -89.5q-195 0 -318 132.5t-123 344.5z" />
    <glyph glyph-name="d" unicode="d" horiz-adv-x="1062" 
d="M698 0v76q-33 -39 -96 -67.5t-133 -28.5q-129 0 -225 65t-143.5 172t-47.5 240t47.5 240.5t143.5 173t225 65.5q70 0 133 -28.5t96 -67.5v491h256v-1331h-256zM698 307v301q-22 47 -69.5 77t-102.5 30q-101 0 -160 -72.5t-59 -185.5q0 -112 59.5 -184t159.5 -72
q57 0 103.5 29t68.5 77z" />
    <glyph glyph-name="e" unicode="e" horiz-adv-x="960" 
d="M668 299h235q-25 -149 -130.5 -234t-274.5 -85q-199 0 -322 132t-123 345q0 207 124.5 343t316.5 136q197 0 306 -124.5t109 -330.5v-78h-610q6 -102 60 -160.5t139 -58.5q66 0 110.5 29t59.5 86zM496 729q-74 0 -124 -44t-67 -128h354q-2 75 -45 123.5t-118 48.5z" />
    <glyph glyph-name="f" unicode="f" horiz-adv-x="667" 
d="M647 1325v-215q-38 25 -90 25q-59 0 -92 -32.5t-33 -94.5v-93h191v-204h-191v-711h-250v711h-149v204h149v109q0 153 88 239.5t236 86.5q83 0 141 -25z" />
    <glyph glyph-name="g" unicode="g" horiz-adv-x="1056" 
d="M694 61v54q-33 -40 -93.5 -67.5t-131.5 -27.5q-128 0 -224 64t-144 167t-48 228q0 124 48 226.5t144 166.5t224 64q71 0 131 -27t94 -65v71h252v-815q0 -226 -122.5 -342t-325.5 -116q-179 0 -292.5 86t-133.5 239h245q30 -129 181 -129q196 0 196 223zM694 330v299
q-25 40 -71 67t-101 27q-99 0 -157 -68t-58 -176q0 -109 58 -177.5t157 -68.5q55 0 101.5 27.5t70.5 69.5z" />
    <glyph glyph-name="h" unicode="h" horiz-adv-x="1034" 
d="M111 0v1331h254v-500q39 46 104 75.5t141 29.5q153 0 238.5 -91.5t85.5 -246.5v-598h-254v545q0 74 -38.5 118t-111.5 44q-60 0 -105 -34t-60 -93v-580h-254z" />
    <glyph glyph-name="i" unicode="i" horiz-adv-x="475" 
d="M365 915v-915h-254v915h254zM387 1180q0 -63 -44 -104.5t-105 -41.5q-63 0 -107.5 41.5t-44.5 104.5q0 62 44.5 103.5t107.5 41.5q61 0 105 -41.5t44 -103.5z" />
    <glyph glyph-name="j" unicode="j" horiz-adv-x="471" 
d="M365 915v-952q0 -154 -81.5 -237.5t-238.5 -83.5q-67 0 -98 10v203q49 -7 55 -7q56 0 82.5 28t26.5 89v950h254zM387 1180q0 -63 -44 -104.5t-105 -41.5q-63 0 -107.5 41.5t-44.5 104.5q0 62 44.5 103.5t107.5 41.5q61 0 105 -41.5t44 -103.5z" />
    <glyph glyph-name="k" unicode="k" horiz-adv-x="1021" 
d="M707 0l-269 369l-73 -80v-289h-254v1331h254v-756l313 340h315l-370 -389l385 -526h-301z" />
    <glyph glyph-name="l" unicode="l" horiz-adv-x="475" 
d="M365 1331v-1331h-254v1331h254z" />
    <glyph glyph-name="m" unicode="m" horiz-adv-x="1519" 
d="M842 819q105 117 276 117q140 0 220.5 -91t80.5 -247v-598h-254v545q0 76 -33.5 120t-97.5 44q-51 0 -90 -31t-51 -88v-590h-256v545q0 76 -32.5 120t-96.5 44q-52 0 -91.5 -31.5t-51.5 -87.5v-590h-254v915h254v-75q35 44 95.5 70t135.5 26q79 0 142.5 -32t103.5 -85z
" />
    <glyph glyph-name="n" unicode="n" horiz-adv-x="1034" 
d="M111 0v915h254v-84q39 46 104 75.5t141 29.5q153 0 238.5 -91.5t85.5 -246.5v-598h-254v545q0 74 -38.5 118t-111.5 44q-60 0 -105 -34t-60 -93v-580h-254z" />
    <glyph glyph-name="o" unicode="o" horiz-adv-x="1001" 
d="M950 457q0 -211 -124.5 -344t-323.5 -133t-324 133t-125 344q0 212 125 345.5t324 133.5t323.5 -133t124.5 -346zM698 457q0 119 -51.5 191.5t-144.5 72.5t-145 -73t-52 -191q0 -117 52 -189.5t145 -72.5t144.5 72.5t51.5 189.5z" />
    <glyph glyph-name="p" unicode="p" horiz-adv-x="1062" 
d="M365 76v-414h-254v1253h254v-75q33 39 96 67.5t133 28.5q129 0 225.5 -66.5t144.5 -174t48 -238.5t-48 -238t-144.5 -173t-225.5 -66q-70 0 -133 28.5t-96 67.5zM365 608v-301q23 -48 70 -77t102 -29q100 0 159.5 72t59.5 184q0 113 -59 185.5t-160 72.5
q-55 0 -101.5 -30t-70.5 -77z" />
    <glyph glyph-name="q" unicode="q" horiz-adv-x="1062" 
d="M698 -338v414q-33 -39 -96 -67.5t-133 -28.5q-129 0 -225.5 66t-144.5 173t-48 238t48 238.5t144.5 174t225.5 66.5q70 0 133 -28.5t96 -67.5v75h254v-1253h-254zM698 307v301q-24 47 -70.5 77t-101.5 30q-101 0 -160 -72.5t-59 -185.5q0 -112 59.5 -184t159.5 -72
q55 0 102 29t70 77z" />
    <glyph glyph-name="r" unicode="r" horiz-adv-x="718" 
d="M666 920v-254q-53 30 -127 30q-66 0 -113.5 -33.5t-60.5 -95.5v-567h-254v915h254v-90q30 51 84 81t120 30q69 0 97 -16z" />
    <glyph glyph-name="s" unicode="s" horiz-adv-x="894" 
d="M51 272h252q15 -49 55.5 -74.5t98.5 -25.5q60 0 94.5 23.5t34.5 66.5q0 30 -22 48t-70 30l-185 41q-113 27 -175 88t-62 170q0 132 104 214.5t260 82.5q169 0 267 -75t122 -208h-241q-28 90 -144 90q-49 0 -85 -23t-36 -63q0 -27 19.5 -43.5t62.5 -27.5l189 -43
q244 -59 244 -267q0 -136 -105.5 -216t-269.5 -80q-169 0 -278.5 77t-129.5 215z" />
    <glyph glyph-name="t" unicode="t" horiz-adv-x="706" 
d="M166 276v435h-139v204h139v248h252v-248h200v-204h-200v-402q0 -104 104 -104q61 0 111 31v-226q-54 -28 -164 -28q-144 0 -223.5 73t-79.5 221z" />
    <glyph glyph-name="u" unicode="u" horiz-adv-x="1030" 
d="M922 915v-915h-254v84q-41 -46 -105.5 -75t-140.5 -29q-152 0 -237 91.5t-85 245.5v598h254v-546q0 -75 37.5 -118.5t110.5 -43.5q60 0 105.5 34t58.5 93v581h256z" />
    <glyph glyph-name="v" unicode="v" horiz-adv-x="993" 
d="M618 0h-245l-346 915h266l211 -608l207 608h256z" />
    <glyph glyph-name="w" unicode="w" horiz-adv-x="1376" 
d="M788 915l152 -583l164 583h246l-279 -915h-233l-150 561l-149 -561h-234l-278 915h254l163 -583l150 583h194z" />
    <glyph glyph-name="x" unicode="x" horiz-adv-x="976" 
d="M940 915l-313 -442l334 -473h-281l-197 287l-198 -287h-267l330 467l-311 448h280l177 -260l180 260h266z" />
    <glyph glyph-name="y" unicode="y" horiz-adv-x="997" 
d="M494 -338h-250l133 334l-350 919h268l211 -608l209 608h256z" />
    <glyph glyph-name="z" unicode="z" horiz-adv-x="927" 
d="M844 205v-205h-766v164l440 547h-424v204h742v-163l-433 -547h441z" />
    <glyph glyph-name="braceleft" unicode="{" horiz-adv-x="722" 
d="M436 410v-304q0 -59 60 -59h186v-219h-221q-117 0 -190.5 74t-73.5 192v316q0 59 -60 59h-96v221h96q60 0 60 60v315q0 118 73.5 192t190.5 74h221v-219h-186q-60 0 -60 -59v-303q0 -110 -96 -170q96 -60 96 -170z" />
    <glyph glyph-name="bar" unicode="|" horiz-adv-x="466" 
d="M121 -172v1503h225v-1503h-225z" />
    <glyph glyph-name="braceright" unicode="}" horiz-adv-x="722" 
d="M287 106v304q0 110 96 170q-96 60 -96 170v303q0 59 -60 59h-186v219h221q117 0 190.5 -74t73.5 -192v-315q0 -60 60 -60h96v-221h-96q-60 0 -60 -59v-316q0 -118 -73.5 -192t-190.5 -74h-221v219h186q60 0 60 59z" />
    <glyph glyph-name="asciitilde" unicode="~" horiz-adv-x="876" 
d="M623 711h180q0 -148 -57.5 -230t-159.5 -82q-43 0 -83 19t-65 41.5t-55 41.5t-55 19q-74 0 -74 -112h-180q0 148 57 229.5t160 81.5q42 0 82 -19t65.5 -41.5t55.5 -41.5t55 -19q74 0 74 113z" />
    <glyph glyph-name="uni00A0" unicode="&#xa0;" horiz-adv-x="434" 
 />
    <glyph glyph-name="exclamdown" unicode="&#xa1;" horiz-adv-x="458" 
d="M61 918q0 66 46.5 111.5t113.5 45.5q68 0 115 -45.5t47 -111.5q0 -67 -47 -113.5t-115 -46.5q-67 0 -113.5 46t-46.5 114zM68 -197l61 852h186l62 -852h-309z" />
    <glyph glyph-name="cent" unicode="&#xa2;" horiz-adv-x="940" 
d="M53 477q0 183 91.5 309t246.5 160v184h217v-186q123 -29 197 -116.5t88 -213.5h-248q-7 58 -48 91.5t-103 33.5q-87 0 -138 -72t-51 -190q0 -117 51 -188.5t138 -71.5q62 0 103 33t48 90h248q-14 -126 -88 -213.5t-197 -114.5v-190h-217v188q-154 32 -246 158.5
t-92 308.5z" />
    <glyph glyph-name="sterling" unicode="&#xa3;" horiz-adv-x="1017" 
d="M446 868v-149h263v-199h-263v-123q0 -129 -43 -186h566v-211h-914v211h107q41 71 41 186v123h-148v199h148v145q0 178 107 296t286 118q163 0 262 -93t113 -247h-236q-6 59 -41 92t-96 33q-74 0 -113 -53.5t-39 -141.5z" />
    <glyph glyph-name="yen" unicode="&#xa5;" horiz-adv-x="1148" 
d="M133 524v172h215l-309 561h280l261 -495l260 495h270l-313 -561h217v-172h-312v-114h312v-172h-312v-238h-258v238h-311v172h311v114h-311z" />
    <glyph glyph-name="section" unicode="&#xa7;" horiz-adv-x="964" 
d="M782 213q43 -59 43 -135q0 -129 -97.5 -206t-254.5 -77q-170 0 -267.5 80t-115.5 221h232q8 -50 44.5 -81t100.5 -31q49 0 83 23t34 65q0 24 -14 44.5t-31 33t-52 34.5l-225 138q-106 63 -163.5 133t-57.5 168q0 73 36.5 136t104.5 101q-43 56 -43 135q0 129 97 206
t253 77q172 0 269.5 -80t115.5 -221h-231q-8 51 -44.5 82t-100.5 31q-49 0 -84 -23.5t-35 -65.5q0 -24 14.5 -45t30.5 -33t51 -34l227 -137q106 -63 164 -133t58 -168q0 -74 -37.5 -138t-104.5 -100zM375 506l250 -160q35 8 52 34t17 58q0 37 -28 66.5t-78 62.5l-248 160
q-36 -8 -53 -34t-17 -58q0 -37 27.5 -66.5t77.5 -62.5z" />
    <glyph glyph-name="dieresis" unicode="&#xa8;" horiz-adv-x="1024" 
d="M207 1167q0 58 40 98t97 40q56 0 95.5 -40t39.5 -98q0 -55 -39.5 -95t-95.5 -40q-57 0 -97 39.5t-40 95.5zM543 1167q0 58 39.5 98t95.5 40t96.5 -40t40.5 -98q0 -55 -40.5 -95t-96.5 -40t-95.5 40t-39.5 95z" />
    <glyph glyph-name="copyright" unicode="&#xa9;" horiz-adv-x="1441" 
d="M1370 629q0 -184 -88 -334t-236 -232.5t-325 -82.5t-325 82.5t-236 232.5t-88 334t88 334t236 232.5t325 82.5t325 -82.5t236 -232.5t88 -334zM1274 629q0 157 -75 285t-201.5 199t-276.5 71t-276.5 -71t-201.5 -199t-75 -285t75 -285t201.5 -199t276.5 -71t276.5 71
t201.5 199t75 285zM344 633q0 180 107 293.5t276 113.5q146 0 233.5 -76.5t110.5 -203.5h-215q-28 88 -129 88q-80 0 -125 -60t-45 -155t45 -156t125 -61q101 0 129 90h215q-23 -127 -111 -204t-233 -77q-169 0 -276 114t-107 294z" />
    <glyph glyph-name="ordfeminine" unicode="&#xaa;" horiz-adv-x="630" 
d="M590 649h-195v31q-19 -17 -61 -30t-88 -13q-97 0 -162.5 53t-65.5 146q0 89 68 143.5t170 54.5q37 0 76.5 -11t62.5 -24v41q0 33 -21.5 55.5t-62.5 22.5q-65 0 -78 -49h-186q12 92 85.5 151.5t186.5 59.5q128 0 199.5 -65.5t71.5 -182.5v-383zM395 821v37
q-10 20 -36.5 32.5t-57.5 12.5q-37 0 -62.5 -16.5t-25.5 -46.5t25.5 -46t62.5 -16q31 0 57.5 11.5t36.5 31.5z" />
    <glyph glyph-name="guillemotleft" unicode="&#xab;" horiz-adv-x="860" 
d="M457 125h-217l-189 330l189 329h217l-189 -329zM809 125h-217l-189 330l189 329h217l-188 -329z" />
    <glyph glyph-name="registered" unicode="&#xae;" horiz-adv-x="833" 
d="M786 903q0 -161 -108 -268t-262 -107t-262.5 107t-108.5 268t108.5 268t262.5 107t262 -107t108 -268zM719 903q0 135 -87.5 223t-215.5 88t-215.5 -88t-87.5 -223t87.5 -223t215.5 -88t215.5 88t87.5 223zM408 834h-35v-125h-111v393h184q67 0 106.5 -36.5t39.5 -100.5
q0 -93 -76 -119l90 -137h-123zM485 965q0 21 -13.5 33t-37.5 12h-61v-88h61q51 0 51 43z" />
    <glyph glyph-name="macron" unicode="&#xaf;" horiz-adv-x="1024" 
d="M268 1057v186h486v-186h-486z" />
    <glyph glyph-name="degree" unicode="&#xb0;" horiz-adv-x="731" 
d="M244 997q0 -51 36 -88t87 -37q49 0 84.5 37t35.5 88q0 52 -35 89.5t-85 37.5q-51 0 -87 -37t-36 -90zM643 997q0 -115 -81 -196.5t-195 -81.5q-115 0 -196 81t-81 197q0 117 81 199t196 82q114 0 195 -82t81 -199z" />
    <glyph glyph-name="plusminus" unicode="&#xb1;" horiz-adv-x="1165" 
d="M492 1122h184v-266h336v-184h-336v-266h-184v266h-338v184h338v266zM154 127v186h858v-186h-858z" />
    <glyph glyph-name="twosuperior" unicode="&#xb2;" horiz-adv-x="610" 
d="M371 1042q0 27 -17.5 43.5t-46.5 16.5t-48 -21t-19 -49h-197q11 102 81.5 169t180.5 67q115 0 183.5 -60t68.5 -159q0 -42 -20.5 -83.5t-43.5 -67.5t-67 -69l-119 -112h250v-158h-508v123l242 238q43 42 61.5 68t18.5 54z" />
    <glyph glyph-name="threesuperior" unicode="&#xb3;" horiz-adv-x="604" 
d="M244 844v135h47q37 0 60.5 17t23.5 51q0 30 -19.5 48.5t-52.5 18.5q-32 0 -53.5 -23t-24.5 -55h-182q11 99 78 165.5t176 66.5q117 0 183.5 -59.5t66.5 -157.5q0 -42 -21.5 -82.5t-52.5 -59.5q39 -20 60.5 -57.5t21.5 -81.5q0 -100 -68.5 -161.5t-187.5 -61.5
q-117 0 -187.5 64.5t-76.5 172.5h190q2 -36 23 -59t57 -23q34 0 55 20t21 54q0 33 -22.5 50.5t-59.5 17.5h-55z" />
    <glyph glyph-name="acute" unicode="&#xb4;" horiz-adv-x="1024" 
d="M535 1040h-230l162 291h252z" />
    <glyph glyph-name="paragraph" unicode="&#xb6;" horiz-adv-x="1101" 
d="M795 -184v1441h186v-1441h-186zM477 -184v714q-66 0 -129.5 13t-122 42t-102.5 70.5t-70 103.5t-26 136t26.5 135.5t70 103t102 69.5t122 41t129.5 13h187v-1441h-187z" />
    <glyph glyph-name="periodcentered" unicode="&#xb7;" horiz-adv-x="438" 
d="M59 539q0 69 46 115t114 46t114 -46t46 -115t-46.5 -116.5t-113.5 -47.5t-113.5 47.5t-46.5 116.5z" />
    <glyph glyph-name="cedilla" unicode="&#xb8;" horiz-adv-x="1024" 
d="M543 -381h-226l144 285h233z" />
    <glyph glyph-name="onesuperior" unicode="&#xb9;" horiz-adv-x="485" 
d="M401 1257v-698h-186v485l-178 -88v189l235 112h129z" />
    <glyph glyph-name="ordmasculine" unicode="&#xba;" horiz-adv-x="663" 
d="M645 958q0 -145 -86.5 -234t-226.5 -89t-228 89.5t-88 233.5q0 141 88.5 231.5t227.5 90.5t226 -90t87 -232zM438 958q0 66 -28 108t-78 42t-78.5 -42t-28.5 -108q0 -67 28.5 -108t78.5 -41t78 41t28 108z" />
    <glyph glyph-name="guillemotright" unicode="&#xbb;" horiz-adv-x="860" 
d="M621 125h-218l189 330l-189 329h218l188 -329zM268 125h-217l189 330l-189 329h217l189 -329z" />
    <glyph glyph-name="onequarter" unicode="&#xbc;" horiz-adv-x="1437" 
d="M1227 1257l-883 -1257h-184l882 1257h185zM428 1257v-698h-184v485l-181 -88v189l236 112h129zM1184 698l-197 -417h109v112h164v-112h96v-156h-96v-125h-164v125h-312v141l217 432h183z" />
    <glyph glyph-name="onehalf" unicode="&#xbd;" horiz-adv-x="1466" 
d="M1227 1257l-883 -1257h-184l882 1257h185zM428 1257v-698h-184v485l-181 -88v189l236 112h129zM1176 483q0 28 -17 45t-45 17q-29 0 -48.5 -21t-21.5 -49h-194q11 102 81 168t179 66q116 0 184 -59t68 -158q0 -43 -21 -85.5t-41 -65.5t-67 -71l-119 -110h250v-160h-510
v125l244 235q43 45 60.5 70.5t17.5 52.5z" />
    <glyph glyph-name="threequarters" unicode="&#xbe;" horiz-adv-x="1507" 
d="M1294 1257l-880 -1257h-185l883 1257h182zM287 844v135h47q38 0 61 17t23 51q0 30 -19 48.5t-51 18.5q-34 0 -55.5 -22.5t-24.5 -55.5h-182q11 99 78.5 165.5t177.5 66.5q116 0 183 -59.5t67 -157.5q0 -42 -22 -82.5t-54 -59.5q39 -20 60.5 -57.5t21.5 -81.5
q0 -100 -68 -161.5t-186 -61.5q-119 0 -189.5 64t-76.5 173h190q2 -36 23.5 -59t56.5 -23q34 0 56 20.5t22 53.5t-23 50.5t-61 17.5h-55zM1253 698l-198 -417h110v112h162v-112h98v-156h-98v-125h-162v125h-311v141l215 432h184z" />
    <glyph glyph-name="questiondown" unicode="&#xbf;" horiz-adv-x="933" 
d="M616 918q0 -69 -46.5 -114.5t-114.5 -45.5t-115 46t-47 114q0 66 47 111.5t115 45.5t114.5 -45.5t46.5 -111.5zM41 154q0 32 5.5 62t20 59.5t26 50.5t36.5 51.5t37 44t42.5 46.5t39.5 42q74 80 74 145h251q-4 -73 -27 -122t-87 -123q-11 -12 -52 -56t-55 -62.5t-30.5 -54
t-16.5 -69.5q0 -68 42.5 -110t115.5 -42q75 0 118 49t48 125h270q-19 -180 -137.5 -293.5t-304.5 -113.5q-192 0 -304 100.5t-112 270.5z" />
    <glyph glyph-name="Agrave" unicode="&#xc0;" horiz-adv-x="1284" 
d="M512 1257h260l481 -1257h-266l-113 303h-471l-110 -303h-262zM776 1370h-250l-190 250h276zM639 942l-154 -418h308z" />
    <glyph glyph-name="Aacute" unicode="&#xc1;" horiz-adv-x="1284" 
d="M512 1257h260l481 -1257h-266l-113 303h-471l-110 -303h-262zM754 1370h-250l164 250h276zM639 942l-154 -418h308z" />
    <glyph glyph-name="Acircumflex" unicode="&#xc2;" horiz-adv-x="1284" 
d="M512 1257h260l481 -1257h-266l-113 303h-471l-110 -303h-262zM748 1630l204 -260h-215l-96 111l-96 -111h-215l205 260h213zM639 942l-154 -418h308z" />
    <glyph glyph-name="Atilde" unicode="&#xc3;" horiz-adv-x="1284" 
d="M512 1257h260l481 -1257h-266l-113 303h-471l-110 -303h-262zM801 1642h145q0 -129 -43 -206.5t-131 -77.5q-42 0 -84.5 21.5t-80 43t-66.5 21.5q-57 0 -60 -80h-145q0 129 43 207t131 78q42 0 84.5 -21.5t80 -43t66.5 -21.5q57 0 60 79zM639 942l-154 -418h308z" />
    <glyph glyph-name="Adieresis" unicode="&#xc4;" horiz-adv-x="1284" 
d="M512 1257h260l481 -1257h-266l-113 303h-471l-110 -303h-262zM639 942l-154 -418h308zM674 1495q0 59 40 99t97 40q58 0 98.5 -40t40.5 -99q0 -55 -41 -95t-98 -40t-97 39.5t-40 95.5zM336 1495q0 60 39 99.5t98 39.5q57 0 97 -40t40 -99q0 -56 -40 -95.5t-97 -39.5
q-58 0 -97.5 39.5t-39.5 95.5z" />
    <glyph glyph-name="Aring" unicode="&#xc5;" horiz-adv-x="1284" 
d="M512 1257h260l481 -1257h-266l-113 303h-471l-110 -303h-262zM844 1522q0 -85 -58.5 -142t-144.5 -57t-144.5 57t-58.5 142t58.5 141.5t144.5 56.5t144.5 -56.5t58.5 -141.5zM639 942l-154 -418h308zM723 1522q0 34 -24 58t-58 24t-57 -24t-23 -58t23 -57t57 -23t58 23
t24 57z" />
    <glyph glyph-name="AE" unicode="&#xc6;" horiz-adv-x="1800" 
d="M748 1257h970v-229h-557v-274h502v-224h-502v-299h557v-231h-815v303h-426l-172 -303h-274zM903 1049l-299 -525h299v525z" />
    <glyph glyph-name="Ccedilla" unicode="&#xc7;" horiz-adv-x="1226" 
d="M59 629q0 286 166 467.5t420 181.5q217 0 353.5 -115.5t172.5 -310.5h-260q-72 192 -266 192q-148 0 -233.5 -115.5t-85.5 -299.5q0 -183 85.5 -299.5t233.5 -116.5q194 0 266 195h260q-36 -196 -172.5 -312t-353.5 -116q-254 0 -420 181.5t-166 467.5zM625 -381h-226
l144 285h233z" />
    <glyph glyph-name="Egrave" unicode="&#xc8;" horiz-adv-x="1056" 
d="M692 1370h-250l-190 250h276zM121 1257h854v-229h-596v-274h541v-224h-541v-299h596v-231h-854v1257z" />
    <glyph glyph-name="Eacute" unicode="&#xc9;" horiz-adv-x="1056" 
d="M668 1370h-250l164 250h276zM121 1257h854v-229h-596v-274h541v-224h-541v-299h596v-231h-854v1257z" />
    <glyph glyph-name="Ecircumflex" unicode="&#xca;" horiz-adv-x="1056" 
d="M121 1257h854v-229h-596v-274h541v-224h-541v-299h596v-231h-854v1257zM662 1630l204 -260h-215l-96 111l-96 -111h-215l205 260h213z" />
    <glyph glyph-name="Edieresis" unicode="&#xcb;" horiz-adv-x="1056" 
d="M250 1495q0 60 39 99.5t98 39.5q57 0 97 -40t40 -99q0 -56 -40 -95.5t-97 -39.5q-58 0 -97.5 39.5t-39.5 95.5zM588 1495q0 59 40 99t97 40q58 0 98.5 -40t40.5 -99q0 -55 -41 -95t-98 -40t-97 39.5t-40 95.5zM121 1257h854v-229h-596v-274h541v-224h-541v-299h596v-231
h-854v1257z" />
    <glyph glyph-name="Igrave" unicode="&#xcc;" horiz-adv-x="501" 
d="M383 1257v-1257h-262v1257h262zM387 1370h-250l-190 250h276z" />
    <glyph glyph-name="Iacute" unicode="&#xcd;" horiz-adv-x="501" 
d="M383 1257v-1257h-262v1257h262zM365 1370h-250l164 250h276z" />
    <glyph glyph-name="Icircumflex" unicode="&#xce;" horiz-adv-x="501" 
d="M383 1257v-1257h-262v1257h262zM358 1630l205 -260h-215l-96 111l-96 -111h-215l204 260h213z" />
    <glyph glyph-name="Idieresis" unicode="&#xcf;" horiz-adv-x="501" 
d="M383 1257v-1257h-262v1257h262zM-55 1495q0 60 39 99.5t98 39.5q58 0 97.5 -40t39.5 -99q0 -56 -40 -95.5t-97 -39.5q-58 0 -97.5 39.5t-39.5 95.5zM283 1495q0 59 39.5 99t97.5 40t98.5 -40t40.5 -99q0 -55 -41 -95t-98 -40t-97 39.5t-40 95.5z" />
    <glyph glyph-name="Eth" unicode="&#xd0;" horiz-adv-x="1282" 
d="M51 541v211h105v505h444q285 0 453 -170t168 -458t-168 -458.5t-453 -170.5h-444v541h-105zM416 231h174q178 0 274.5 106.5t96.5 291.5q0 187 -96.5 293t-274.5 106h-174v-276h211v-211h-211v-310z" />
    <glyph glyph-name="Ntilde" unicode="&#xd1;" horiz-adv-x="1294" 
d="M807 1642h145q0 -129 -43 -206.5t-131 -77.5q-42 0 -84.5 21.5t-80 43t-66.5 21.5q-57 0 -60 -80h-145q0 129 43 207t131 78q42 0 84.5 -21.5t80.5 -43t67 -21.5q56 0 59 79zM1174 1257v-1257h-207l-594 838v-838h-252v1257h246l555 -794v794h252z" />
    <glyph glyph-name="Ograve" unicode="&#xd2;" horiz-adv-x="1310" 
d="M791 1370h-250l-191 250h277zM1249 629q0 -186 -75.5 -334t-212 -231.5t-308.5 -83.5t-308 83.5t-211 231.5t-75 334q0 187 75 335t210.5 231t308.5 83t309 -83t211.5 -231.5t75.5 -334.5zM985 629q0 185 -91 300t-241 115q-148 0 -237.5 -114.5t-89.5 -300.5t89.5 -301
t237.5 -115q150 0 241 115t91 301z" />
    <glyph glyph-name="Oacute" unicode="&#xd3;" horiz-adv-x="1310" 
d="M766 1370h-250l164 250h276zM1249 629q0 -186 -75.5 -334t-212 -231.5t-308.5 -83.5t-308 83.5t-211 231.5t-75 334q0 187 75 335t210.5 231t308.5 83t309 -83t211.5 -231.5t75.5 -334.5zM985 629q0 185 -91 300t-241 115q-148 0 -237.5 -114.5t-89.5 -300.5t89.5 -301
t237.5 -115q150 0 241 115t91 301z" />
    <glyph glyph-name="Ocircumflex" unicode="&#xd4;" horiz-adv-x="1310" 
d="M1249 629q0 -186 -75.5 -334t-212 -231.5t-308.5 -83.5t-308 83.5t-211 231.5t-75 334q0 187 75 335t210.5 231t308.5 83t309 -83t211.5 -231.5t75.5 -334.5zM985 629q0 185 -91 300t-241 115q-148 0 -237.5 -114.5t-89.5 -300.5t89.5 -301t237.5 -115q150 0 241 115
t91 301zM760 1630l205 -260h-215l-97 111l-96 -111h-215l205 260h213z" />
    <glyph glyph-name="Otilde" unicode="&#xd5;" horiz-adv-x="1310" 
d="M813 1642h145q0 -129 -43 -206.5t-131 -77.5q-42 0 -84.5 21.5t-80 43t-66.5 21.5q-56 0 -59 -80h-146q0 129 43 207t131 78q42 0 84.5 -21.5t80.5 -43t67 -21.5q56 0 59 79zM1249 629q0 -186 -75.5 -334t-212 -231.5t-308.5 -83.5t-308 83.5t-211 231.5t-75 334
q0 187 75 335t210.5 231t308.5 83t309 -83t211.5 -231.5t75.5 -334.5zM985 629q0 185 -91 300t-241 115q-148 0 -237.5 -114.5t-89.5 -300.5t89.5 -301t237.5 -115q150 0 241 115t91 301z" />
    <glyph glyph-name="Odieresis" unicode="&#xd6;" horiz-adv-x="1310" 
d="M348 1495q0 60 39 99.5t98 39.5q58 0 98 -40t40 -99q0 -56 -40.5 -95.5t-97.5 -39.5q-58 0 -97.5 39.5t-39.5 95.5zM686 1495q0 59 40 99t97 40q58 0 99 -40t41 -99q0 -55 -41.5 -95t-98.5 -40t-97 39.5t-40 95.5zM1249 629q0 -186 -75.5 -334t-212 -231.5t-308.5 -83.5
t-308 83.5t-211 231.5t-75 334q0 187 75 335t210.5 231t308.5 83t309 -83t211.5 -231.5t75.5 -334.5zM985 629q0 185 -91 300t-241 115q-148 0 -237.5 -114.5t-89.5 -300.5t89.5 -301t237.5 -115q150 0 241 115t91 301z" />
    <glyph glyph-name="multiply" unicode="&#xd7;" horiz-adv-x="1013" 
d="M373 610l-250 246l135 135l248 -248l248 248l137 -135l-250 -246l250 -248l-137 -137l-248 248l-248 -248l-135 137z" />
    <glyph glyph-name="Oslash" unicode="&#xd8;" horiz-adv-x="1329" 
d="M102 63l107 130q-139 178 -139 436q0 187 75 335t210.5 231t308.5 83q199 0 350 -113l98 119l119 -90l-111 -133q140 -180 140 -432q0 -186 -75.5 -334t-212 -231.5t-308.5 -83.5q-202 0 -347 108l-96 -115zM334 629q0 -139 43 -232l483 582q-81 65 -196 65
q-149 0 -239.5 -115t-90.5 -300zM995 629q0 134 -43 227l-481 -582q80 -61 193 -61q149 0 240 115.5t91 300.5z" />
    <glyph glyph-name="Ugrave" unicode="&#xd9;" horiz-adv-x="1249" 
d="M760 1370h-250l-191 250h277zM625 -20q-241 0 -382 136t-141 390v751h263v-725q0 -159 67 -238t193 -79t193 79t67 238v725h262v-751q0 -254 -140 -390t-382 -136z" />
    <glyph glyph-name="Uacute" unicode="&#xda;" horiz-adv-x="1249" 
d="M737 1370h-250l164 250h277zM625 -20q-241 0 -382 136t-141 390v751h263v-725q0 -159 67 -238t193 -79t193 79t67 238v725h262v-751q0 -254 -140 -390t-382 -136z" />
    <glyph glyph-name="Ucircumflex" unicode="&#xdb;" horiz-adv-x="1249" 
d="M625 -20q-241 0 -382 136t-141 390v751h263v-725q0 -159 67 -238t193 -79t193 79t67 238v725h262v-751q0 -254 -140 -390t-382 -136zM731 1630l205 -260h-215l-96 111l-97 -111h-215l205 260h213z" />
    <glyph glyph-name="Udieresis" unicode="&#xdc;" horiz-adv-x="1249" 
d="M319 1495q0 60 39.5 99.5t98.5 39.5q57 0 97 -40t40 -99q0 -56 -40 -95.5t-97 -39.5q-58 0 -98 39.5t-40 95.5zM657 1495q0 59 40 99t98 40t98.5 -40t40.5 -99q0 -55 -41 -95t-98 -40t-97.5 39.5t-40.5 95.5zM625 -20q-241 0 -382 136t-141 390v751h263v-725
q0 -159 67 -238t193 -79t193 79t67 238v725h262v-751q0 -254 -140 -390t-382 -136z" />
    <glyph glyph-name="Yacute" unicode="&#xdd;" horiz-adv-x="1214" 
d="M612 725l303 532h277l-457 -780v-477h-260v477l-452 780h284zM719 1370h-250l164 250h276z" />
    <glyph glyph-name="Thorn" unicode="&#xde;" horiz-adv-x="1130" 
d="M633 233h-252v-233h-260v1257h260v-202h252q204 0 323 -106.5t119 -305.5q0 -196 -119.5 -303t-322.5 -107zM817 643q0 87 -51 137.5t-150 50.5h-235v-374h235q98 0 149.5 50.5t51.5 135.5z" />
    <glyph glyph-name="germandbls" unicode="&#xdf;" horiz-adv-x="1083" 
d="M797 739q102 -35 167.5 -129t65.5 -223q0 -187 -112 -292t-293 -105q-97 0 -162 22v213q49 -18 123 -18q97 0 149.5 53t52.5 150q0 98 -64.5 152t-178.5 54h-74v207h64q77 0 120 40.5t43 117.5q0 69 -43.5 111.5t-117.5 42.5q-87 0 -132 -58t-45 -151v-926h-249v915
q0 198 115.5 316.5t308.5 118.5q192 0 297.5 -96.5t105.5 -249.5q0 -97 -39.5 -167t-101.5 -98z" />
    <glyph glyph-name="agrave" unicode="&#xe0;" horiz-adv-x="958" 
d="M862 0h-244v49q-25 -25 -88.5 -45t-134.5 -20q-144 0 -242 80t-98 217q0 129 102 210.5t253 81.5q58 0 118.5 -16t89.5 -37v68q0 62 -38 101.5t-111 39.5q-103 0 -135 -86h-242q21 127 126 210t259 83q182 0 283.5 -93.5t101.5 -258.5v-584zM618 250v65q-17 36 -63 58
t-102 22q-66 0 -114 -28.5t-48 -83.5q0 -56 47.5 -84.5t114.5 -28.5q56 0 102 22t63 58zM623 1040h-232l-182 291h252z" />
    <glyph glyph-name="aacute" unicode="&#xe1;" horiz-adv-x="958" 
d="M862 0h-244v49q-25 -25 -88.5 -45t-134.5 -20q-144 0 -242 80t-98 217q0 129 102 210.5t253 81.5q58 0 118.5 -16t89.5 -37v68q0 62 -38 101.5t-111 39.5q-103 0 -135 -86h-242q21 127 126 210t259 83q182 0 283.5 -93.5t101.5 -258.5v-584zM618 250v65q-17 36 -63 58
t-102 22q-66 0 -114 -28.5t-48 -83.5q0 -56 47.5 -84.5t114.5 -28.5q56 0 102 22t63 58zM600 1040h-229l161 291h252z" />
    <glyph glyph-name="acircumflex" unicode="&#xe2;" horiz-adv-x="958" 
d="M598 1325l195 -297h-201l-100 141l-101 -141h-201l195 297h213zM862 0h-244v49q-25 -25 -88.5 -45t-134.5 -20q-144 0 -242 80t-98 217q0 129 102 210.5t253 81.5q58 0 118.5 -16t89.5 -37v68q0 62 -38 101.5t-111 39.5q-103 0 -135 -86h-242q21 127 126 210t259 83
q182 0 283.5 -93.5t101.5 -258.5v-584zM618 250v65q-17 36 -63 58t-102 22q-66 0 -114 -28.5t-48 -83.5q0 -56 47.5 -84.5t114.5 -28.5q56 0 102 22t63 58z" />
    <glyph glyph-name="atilde" unicode="&#xe3;" horiz-adv-x="958" 
d="M862 0h-244v49q-25 -25 -88.5 -45t-134.5 -20q-144 0 -242 80t-98 217q0 129 102 210.5t253 81.5q58 0 118.5 -16t89.5 -37v68q0 62 -38 101.5t-111 39.5q-103 0 -135 -86h-242q21 127 126 210t259 83q182 0 283.5 -93.5t101.5 -258.5v-584zM618 250v65q-17 36 -63 58
t-102 22q-66 0 -114 -28.5t-48 -83.5q0 -56 47.5 -84.5t114.5 -28.5q56 0 102 22t63 58zM641 1317h145q0 -129 -44 -207t-132 -78q-38 0 -75.5 23.5t-69.5 47t-57 23.5q-59 0 -62 -86h-145q0 129 44 207t132 78q38 0 76.5 -23.5t70.5 -47t56 -23.5q58 0 61 86z" />
    <glyph glyph-name="adieresis" unicode="&#xe4;" horiz-adv-x="958" 
d="M193 1167q0 58 40 98t97 40q56 0 95.5 -40t39.5 -98q0 -55 -39.5 -95t-95.5 -40q-57 0 -97 39.5t-40 95.5zM528 1167q0 58 40 98t96 40t96.5 -40t40.5 -98q0 -55 -40.5 -95t-96.5 -40t-96 40t-40 95zM862 0h-244v49q-25 -25 -88.5 -45t-134.5 -20q-144 0 -242 80t-98 217
q0 129 102 210.5t253 81.5q58 0 118.5 -16t89.5 -37v68q0 62 -38 101.5t-111 39.5q-103 0 -135 -86h-242q21 127 126 210t259 83q182 0 283.5 -93.5t101.5 -258.5v-584zM618 250v65q-17 36 -63 58t-102 22q-66 0 -114 -28.5t-48 -83.5q0 -56 47.5 -84.5t114.5 -28.5
q56 0 102 22t63 58z" />
    <glyph glyph-name="aring" unicode="&#xe5;" horiz-adv-x="958" 
d="M862 0h-244v49q-25 -25 -88.5 -45t-134.5 -20q-144 0 -242 80t-98 217q0 129 102 210.5t253 81.5q58 0 118.5 -16t89.5 -37v68q0 62 -38 101.5t-111 39.5q-103 0 -135 -86h-242q21 127 126 210t259 83q182 0 283.5 -93.5t101.5 -258.5v-584zM618 250v65q-17 36 -63 58
t-102 22q-66 0 -114 -28.5t-48 -83.5q0 -56 47.5 -84.5t114.5 -28.5q56 0 102 22t63 58zM692 1196q0 -85 -58.5 -142t-144.5 -57t-144 57t-58 142t58 142t144 57t144.5 -57t58.5 -142zM571 1196q0 34 -24 58t-58 24q-33 0 -56 -24t-23 -58t22.5 -57t56.5 -23t58 23t24 57z
" />
    <glyph glyph-name="ae" unicode="&#xe6;" horiz-adv-x="1497" 
d="M436 174q63 0 108.5 27.5t67.5 77.5v118h-163q-66 0 -112 -27.5t-46 -82.5t42.5 -84t102.5 -29zM1204 295h236q-25 -145 -131.5 -230t-274.5 -85q-194 0 -317 126q-124 -124 -322 -124q-143 0 -241.5 78t-98.5 208q0 135 105.5 213t265.5 78h186v31q0 62 -38 101.5
t-111 39.5q-110 0 -139 -88h-232q21 127 123.5 210t253.5 83q193 0 287 -121q121 121 276 121q194 0 304 -125t110 -330v-82h-608q6 -102 58.5 -158.5t139.5 -56.5q64 0 108.5 28.5t59.5 82.5zM1032 729q-73 0 -122 -44t-66 -128h354q-3 76 -46.5 124t-119.5 48z" />
    <glyph glyph-name="ccedilla" unicode="&#xe7;" horiz-adv-x="940" 
d="M53 457q0 213 123 346t318 133q168 0 274 -90t127 -240h-250q-11 53 -50.5 83t-100.5 30q-87 0 -138 -72t-51 -190q0 -117 51 -188.5t138 -71.5q61 0 100.5 29.5t50.5 82.5h250q-21 -150 -126.5 -239.5t-274.5 -89.5q-195 0 -318 132.5t-123 344.5zM473 -381h-225
l143 285h234z" />
    <glyph glyph-name="egrave" unicode="&#xe8;" horiz-adv-x="960" 
d="M668 299h235q-25 -149 -130.5 -234t-274.5 -85q-199 0 -322 132t-123 345q0 207 124.5 343t316.5 136q197 0 306 -124.5t109 -330.5v-78h-610q6 -102 60 -160.5t139 -58.5q66 0 110.5 29t59.5 86zM496 729q-74 0 -124 -44t-67 -128h354q-2 75 -45 123.5t-118 48.5z
M629 1040h-232l-182 291h252z" />
    <glyph glyph-name="eacute" unicode="&#xe9;" horiz-adv-x="960" 
d="M608 1040h-229l162 291h252zM668 299h235q-25 -149 -130.5 -234t-274.5 -85q-199 0 -322 132t-123 345q0 207 124.5 343t316.5 136q197 0 306 -124.5t109 -330.5v-78h-610q6 -102 60 -160.5t139 -58.5q66 0 110.5 29t59.5 86zM496 729q-74 0 -124 -44t-67 -128h354
q-2 75 -45 123.5t-118 48.5z" />
    <glyph glyph-name="ecircumflex" unicode="&#xea;" horiz-adv-x="960" 
d="M608 1325l195 -297h-201l-100 141l-101 -141h-200l194 297h213zM668 299h235q-25 -149 -130.5 -234t-274.5 -85q-199 0 -322 132t-123 345q0 207 124.5 343t316.5 136q197 0 306 -124.5t109 -330.5v-78h-610q6 -102 60 -160.5t139 -58.5q66 0 110.5 29t59.5 86zM496 729
q-74 0 -124 -44t-67 -128h354q-2 75 -45 123.5t-118 48.5z" />
    <glyph glyph-name="edieresis" unicode="&#xeb;" horiz-adv-x="960" 
d="M201 1167q0 58 40 98t97 40q56 0 95.5 -40t39.5 -98q0 -55 -39.5 -95t-95.5 -40q-57 0 -97 39.5t-40 95.5zM537 1167q0 58 39.5 98t95.5 40t96.5 -40t40.5 -98q0 -55 -40.5 -95t-96.5 -40t-95.5 40t-39.5 95zM668 299h235q-25 -149 -130.5 -234t-274.5 -85
q-199 0 -322 132t-123 345q0 207 124.5 343t316.5 136q197 0 306 -124.5t109 -330.5v-78h-610q6 -102 60 -160.5t139 -58.5q66 0 110.5 29t59.5 86zM496 729q-74 0 -124 -44t-67 -128h354q-2 75 -45 123.5t-118 48.5z" />
    <glyph glyph-name="igrave" unicode="&#xec;" horiz-adv-x="475" 
d="M365 915v-915h-254v915h254zM362 1040h-231l-182 291h252z" />
    <glyph glyph-name="iacute" unicode="&#xed;" horiz-adv-x="475" 
d="M342 1040h-229l161 291h252zM365 915v-915h-254v915h254z" />
    <glyph glyph-name="icircumflex" unicode="&#xee;" horiz-adv-x="475" 
d="M344 1325l158 -297h-195l-69 143l-72 -143h-195l160 297h213zM365 915v-915h-254v915h254z" />
    <glyph glyph-name="idieresis" unicode="&#xef;" horiz-adv-x="475" 
d="M-55 1167q0 58 40 98t97 40q56 0 95.5 -40t39.5 -98q0 -55 -39.5 -95t-95.5 -40q-57 0 -97 39.5t-40 95.5zM260 1167q0 58 39 98t96 40q56 0 95.5 -40t39.5 -98q0 -55 -40 -95t-95 -40q-57 0 -96 39.5t-39 95.5zM365 915v-915h-254v915h254z" />
    <glyph glyph-name="eth" unicode="&#xf0;" horiz-adv-x="1001" 
d="M281 989l-50 127l129 41q-131 107 -217 166v8h322q58 -40 125 -100l174 57l49 -127l-115 -37q252 -287 252 -645q0 -227 -123.5 -363t-324.5 -136q-199 0 -324 132t-125 341t120.5 340t305.5 131q85 0 142 -50h8q-37 69 -150 179zM698 453q0 117 -51.5 188.5t-144.5 71.5
t-145 -71.5t-52 -188.5t52 -187.5t145 -70.5t144.5 70.5t51.5 187.5z" />
    <glyph glyph-name="ntilde" unicode="&#xf1;" horiz-adv-x="1034" 
d="M111 0v915h254v-84q39 46 104 75.5t141 29.5q153 0 238.5 -91.5t85.5 -246.5v-598h-254v545q0 74 -38.5 118t-111.5 44q-60 0 -105 -34t-60 -93v-580h-254zM674 1317h145q0 -129 -44 -207t-132 -78q-38 0 -76 23.5t-70 47t-57 23.5q-58 0 -61 -86h-146q0 128 44.5 206.5
t132.5 78.5q38 0 76 -23.5t70 -47t56 -23.5q59 0 62 86z" />
    <glyph glyph-name="ograve" unicode="&#xf2;" horiz-adv-x="1001" 
d="M950 457q0 -211 -124.5 -344t-323.5 -133t-324 133t-125 344q0 212 125 345.5t324 133.5t323.5 -133t124.5 -346zM698 457q0 119 -51.5 191.5t-144.5 72.5t-145 -73t-52 -191q0 -117 52 -189.5t145 -72.5t144.5 72.5t51.5 189.5zM627 1040h-232l-182 291h252z" />
    <glyph glyph-name="oacute" unicode="&#xf3;" horiz-adv-x="1001" 
d="M604 1040h-229l162 291h251zM950 457q0 -211 -124.5 -344t-323.5 -133t-324 133t-125 344q0 212 125 345.5t324 133.5t323.5 -133t124.5 -346zM698 457q0 119 -51.5 191.5t-144.5 72.5t-145 -73t-52 -191q0 -117 52 -189.5t145 -72.5t144.5 72.5t51.5 189.5z" />
    <glyph glyph-name="ocircumflex" unicode="&#xf4;" horiz-adv-x="1001" 
d="M608 1325l195 -297h-201l-100 141l-101 -141h-200l194 297h213zM950 457q0 -211 -124.5 -344t-323.5 -133t-324 133t-125 344q0 212 125 345.5t324 133.5t323.5 -133t124.5 -346zM698 457q0 119 -51.5 191.5t-144.5 72.5t-145 -73t-52 -191q0 -117 52 -189.5t145 -72.5
t144.5 72.5t51.5 189.5z" />
    <glyph glyph-name="otilde" unicode="&#xf5;" horiz-adv-x="1001" 
d="M950 457q0 -211 -124.5 -344t-323.5 -133t-324 133t-125 344q0 212 125 345.5t324 133.5t323.5 -133t124.5 -346zM698 457q0 119 -51.5 191.5t-144.5 72.5t-145 -73t-52 -191q0 -117 52 -189.5t145 -72.5t144.5 72.5t51.5 189.5zM649 1317h146q0 -128 -44.5 -206.5
t-132.5 -78.5q-38 0 -75.5 23.5t-69.5 47t-57 23.5q-59 0 -62 -86h-145q0 129 44 207t132 78q38 0 76.5 -23.5t70.5 -47t56 -23.5q58 0 61 86z" />
    <glyph glyph-name="odieresis" unicode="&#xf6;" horiz-adv-x="1001" 
d="M199 1167q0 58 40 98t97 40q56 0 95.5 -40t39.5 -98q0 -55 -39.5 -95t-95.5 -40q-57 0 -97 39.5t-40 95.5zM535 1167q0 58 39.5 98t95.5 40t96.5 -40t40.5 -98q0 -55 -40.5 -95t-96.5 -40t-95.5 40t-39.5 95zM950 457q0 -211 -124.5 -344t-323.5 -133t-324 133t-125 344
q0 212 125 345.5t324 133.5t323.5 -133t124.5 -346zM698 457q0 119 -51.5 191.5t-144.5 72.5t-145 -73t-52 -191q0 -117 52 -189.5t145 -72.5t144.5 72.5t51.5 189.5z" />
    <glyph glyph-name="divide" unicode="&#xf7;" horiz-adv-x="1146" 
d="M131 514v197h885v-197h-885zM430 967q0 60 41.5 102.5t101.5 42.5t104 -42.5t44 -102.5t-44 -102t-104 -42t-101.5 42t-41.5 102zM430 258q0 60 41.5 101.5t101.5 41.5t104 -41.5t44 -101.5t-44 -102.5t-104 -42.5t-101.5 42.5t-41.5 102.5z" />
    <glyph glyph-name="oslash" unicode="&#xf8;" horiz-adv-x="1021" 
d="M70 18l96 119q-103 128 -103 320q0 212 125 345.5t324 133.5q140 0 252 -72l84 103l98 -74l-92 -113q107 -129 107 -323q0 -211 -125 -344t-324 -133q-148 0 -254 71l-88 -108zM713 457q0 60 -21 125l-291 -357q44 -35 111 -35q93 0 147 75t54 192zM311 457
q0 -66 19 -121l291 352q-47 35 -109 35q-93 0 -147 -74t-54 -192z" />
    <glyph glyph-name="ugrave" unicode="&#xf9;" horiz-adv-x="1030" 
d="M922 915v-915h-254v84q-41 -46 -105.5 -75t-140.5 -29q-152 0 -237 91.5t-85 245.5v598h254v-546q0 -75 37.5 -118.5t110.5 -43.5q60 0 105.5 34t58.5 93v581h256zM641 1040h-231l-183 291h252z" />
    <glyph glyph-name="uacute" unicode="&#xfa;" horiz-adv-x="1030" 
d="M621 1040h-230l162 291h252zM922 915v-915h-254v84q-41 -46 -105.5 -75t-140.5 -29q-152 0 -237 91.5t-85 245.5v598h254v-546q0 -75 37.5 -118.5t110.5 -43.5q60 0 105.5 34t58.5 93v581h256z" />
    <glyph glyph-name="ucircumflex" unicode="&#xfb;" horiz-adv-x="1030" 
d="M623 1325l194 -297h-201l-100 141l-100 -141h-201l195 297h213zM922 915v-915h-254v84q-41 -46 -105.5 -75t-140.5 -29q-152 0 -237 91.5t-85 245.5v598h254v-546q0 -75 37.5 -118.5t110.5 -43.5q60 0 105.5 34t58.5 93v581h256z" />
    <glyph glyph-name="udieresis" unicode="&#xfc;" horiz-adv-x="1030" 
d="M213 1167q0 58 40 98t97 40q56 0 95.5 -40t39.5 -98q0 -55 -39.5 -95t-95.5 -40q-57 0 -97 39.5t-40 95.5zM549 1167q0 58 39.5 98t95.5 40t96.5 -40t40.5 -98q0 -55 -40.5 -95t-96.5 -40t-95.5 40t-39.5 95zM922 915v-915h-254v84q-41 -46 -105.5 -75t-140.5 -29
q-152 0 -237 91.5t-85 245.5v598h254v-546q0 -75 37.5 -118.5t110.5 -43.5q60 0 105.5 34t58.5 93v581h256z" />
    <glyph glyph-name="yacute" unicode="&#xfd;" horiz-adv-x="997" 
d="M494 -338h-250l133 334l-350 919h268l211 -608l209 608h256zM608 1040h-229l162 291h252z" />
    <glyph glyph-name="thorn" unicode="&#xfe;" horiz-adv-x="1062" 
d="M365 76v-414h-254v1669h254v-491q33 39 96 67.5t133 28.5q129 0 225.5 -66.5t144.5 -174t48 -238.5t-48 -238t-144.5 -173t-225.5 -66q-70 0 -133 28.5t-96 67.5zM365 608v-301q23 -48 70 -77t102 -29q100 0 159.5 72t59.5 184q0 113 -59 185.5t-160 72.5
q-55 0 -101.5 -30t-70.5 -77z" />
    <glyph glyph-name="ydieresis" unicode="&#xff;" horiz-adv-x="997" 
d="M494 -338h-250l133 334l-350 919h268l211 -608l209 608h256zM201 1167q0 58 40 98t97 40q56 0 95.5 -40t39.5 -98q0 -55 -39.5 -95t-95.5 -40q-57 0 -97 39.5t-40 95.5zM537 1167q0 58 39.5 98t95.5 40t96.5 -40t40.5 -98q0 -55 -40.5 -95t-96.5 -40t-95.5 40t-39.5 95z
" />
    <glyph glyph-name="Amacron" unicode="&#x100;" horiz-adv-x="1284" 
d="M512 1257h260l481 -1257h-266l-113 303h-471l-110 -303h-262zM393 1370v186h498v-186h-498zM639 942l-154 -418h308z" />
    <glyph glyph-name="amacron" unicode="&#x101;" horiz-adv-x="958" 
d="M862 0h-244v49q-25 -25 -88.5 -45t-134.5 -20q-144 0 -242 80t-98 217q0 129 102 210.5t253 81.5q58 0 118.5 -16t89.5 -37v68q0 62 -38 101.5t-111 39.5q-103 0 -135 -86h-242q21 127 126 210t259 83q182 0 283.5 -93.5t101.5 -258.5v-584zM618 250v65q-17 36 -63 58
t-102 22q-66 0 -114 -28.5t-48 -83.5q0 -56 47.5 -84.5t114.5 -28.5q56 0 102 22t63 58zM252 1057v186h485v-186h-485z" />
    <glyph glyph-name="Abreve" unicode="&#x102;" horiz-adv-x="1284" 
d="M512 1257h260l481 -1257h-266l-113 303h-471l-110 -303h-262zM641 1358q-126 0 -200 71.5t-74 202.5h180q0 -49 25.5 -73.5t68.5 -24.5q96 0 96 98h181q0 -131 -75 -202.5t-202 -71.5zM639 942l-154 -418h308z" />
    <glyph glyph-name="abreve" unicode="&#x103;" horiz-adv-x="958" 
d="M862 0h-244v49q-25 -25 -88.5 -45t-134.5 -20q-144 0 -242 80t-98 217q0 129 102 210.5t253 81.5q58 0 118.5 -16t89.5 -37v68q0 62 -38 101.5t-111 39.5q-103 0 -135 -86h-242q21 127 126 210t259 83q182 0 283.5 -93.5t101.5 -258.5v-584zM618 250v65q-17 36 -63 58
t-102 22q-66 0 -114 -28.5t-48 -83.5q0 -56 47.5 -84.5t114.5 -28.5q56 0 102 22t63 58zM489 1008q-125 0 -198.5 75.5t-73.5 214.5h180q0 -118 92 -118q46 0 69.5 31t23.5 87h180q0 -139 -74 -214.5t-199 -75.5z" />
    <glyph glyph-name="Aogonek" unicode="&#x104;" horiz-adv-x="1284" 
d="M512 1257h260l481 -1257q-10 -14 -24.5 -34t-21 -29.5t-16 -23.5t-14 -20.5t-10 -16.5t-8 -15.5t-5 -13t-3 -14t-0.5 -13.5q0 -19 11 -31t30 -12q29 0 76 33v-152q-60 -43 -127 -43q-78 0 -123 42t-45 112q0 30 7.5 58t27 61t32 52t43.5 60h-96l-113 303h-471l-110 -303
h-262zM639 942l-154 -418h308z" />
    <glyph glyph-name="aogonek" unicode="&#x105;" horiz-adv-x="958" 
d="M616 250v65q-15 36 -60.5 58t-102.5 22q-66 0 -114 -28.5t-48 -83.5q0 -56 47.5 -84.5t114.5 -28.5q57 0 102.5 22t60.5 58zM692 0h-76v49q-25 -25 -87.5 -45t-133.5 -20q-144 0 -242 80t-98 217q0 129 102 210.5t253 81.5q58 0 117.5 -16t88.5 -37v68q0 62 -37 101.5
t-110 39.5q-108 0 -137 -86h-240q21 127 126 210t259 83q182 0 283.5 -93.5t101.5 -258.5v-584q-81 -111 -92 -135q-10 -22 -10 -45q0 -19 10.5 -31t30.5 -12q26 0 73 33v-152q-57 -43 -124 -43q-80 0 -125 42t-45 112q0 30 7.5 57.5t28.5 62.5t31.5 50t44.5 61z" />
    <glyph glyph-name="Cacute" unicode="&#x106;" horiz-adv-x="1226" 
d="M59 629q0 286 166 467.5t420 181.5q217 0 353.5 -115.5t172.5 -310.5h-260q-72 192 -266 192q-148 0 -233.5 -115.5t-85.5 -299.5q0 -183 85.5 -299.5t233.5 -116.5q194 0 266 195h260q-36 -196 -172.5 -312t-353.5 -116q-254 0 -420 181.5t-166 467.5zM774 1370h-250
l164 250h277z" />
    <glyph glyph-name="cacute" unicode="&#x107;" horiz-adv-x="940" 
d="M604 1040h-229l162 291h251zM53 457q0 213 123 346t318 133q168 0 274 -90t127 -240h-250q-11 53 -50.5 83t-100.5 30q-87 0 -138 -72t-51 -190q0 -117 51 -188.5t138 -71.5q61 0 100.5 29.5t50.5 82.5h250q-21 -150 -126.5 -239.5t-274.5 -89.5q-195 0 -318 132.5
t-123 344.5z" />
    <glyph glyph-name="Ccircumflex" unicode="&#x108;" horiz-adv-x="1226" 
d="M59 629q0 286 166 467.5t420 181.5q217 0 353.5 -115.5t172.5 -310.5h-260q-72 192 -266 192q-148 0 -233.5 -115.5t-85.5 -299.5q0 -183 85.5 -299.5t233.5 -116.5q194 0 266 195h260q-36 -196 -172.5 -312t-353.5 -116q-254 0 -420 181.5t-166 467.5zM768 1630
l205 -260h-215l-96 111l-97 -111h-215l205 260h213z" />
    <glyph glyph-name="ccircumflex" unicode="&#x109;" horiz-adv-x="940" 
d="M608 1325l195 -297h-201l-100 141l-101 -141h-200l194 297h213zM53 457q0 213 123 346t318 133q168 0 274 -90t127 -240h-250q-11 53 -50.5 83t-100.5 30q-87 0 -138 -72t-51 -190q0 -117 51 -188.5t138 -71.5q61 0 100.5 29.5t50.5 82.5h250q-21 -150 -126.5 -239.5
t-274.5 -89.5q-195 0 -318 132.5t-123 344.5z" />
    <glyph glyph-name="Cdotaccent" unicode="&#x10a;" horiz-adv-x="1226" 
d="M805 1503q0 -62 -45.5 -103.5t-106.5 -41.5t-106 41.5t-45 103.5q0 63 44.5 104.5t106.5 41.5t107 -41.5t45 -104.5zM59 629q0 286 166 467.5t420 181.5q217 0 353.5 -115.5t172.5 -310.5h-260q-72 192 -266 192q-148 0 -233.5 -115.5t-85.5 -299.5q0 -183 85.5 -299.5
t233.5 -116.5q194 0 266 195h260q-36 -196 -172.5 -312t-353.5 -116q-254 0 -420 181.5t-166 467.5z" />
    <glyph glyph-name="cdotaccent" unicode="&#x10b;" horiz-adv-x="940" 
d="M53 457q0 213 123 346t318 133q168 0 274 -90t127 -240h-250q-11 53 -50.5 83t-100.5 30q-87 0 -138 -72t-51 -190q0 -117 51 -188.5t138 -71.5q61 0 100.5 29.5t50.5 82.5h250q-21 -150 -126.5 -239.5t-274.5 -89.5q-195 0 -318 132.5t-123 344.5zM653 1186
q0 -63 -44.5 -104.5t-106.5 -41.5t-107 41.5t-45 104.5q0 62 45.5 103.5t106.5 41.5t106 -41.5t45 -103.5z" />
    <glyph glyph-name="Ccaron" unicode="&#x10c;" horiz-adv-x="1226" 
d="M547 1368l-205 260h215l96 -110l97 110h215l-205 -260h-213zM59 629q0 286 166 467.5t420 181.5q217 0 353.5 -115.5t172.5 -310.5h-260q-72 192 -266 192q-148 0 -233.5 -115.5t-85.5 -299.5q0 -183 85.5 -299.5t233.5 -116.5q194 0 266 195h260q-36 -196 -172.5 -312
t-353.5 -116q-254 0 -420 181.5t-166 467.5z" />
    <glyph glyph-name="ccaron" unicode="&#x10d;" horiz-adv-x="940" 
d="M803 1325l-195 -297h-213l-194 297h200l101 -141l100 141h201zM53 457q0 213 123 346t318 133q168 0 274 -90t127 -240h-250q-11 53 -50.5 83t-100.5 30q-87 0 -138 -72t-51 -190q0 -117 51 -188.5t138 -71.5q61 0 100.5 29.5t50.5 82.5h250q-21 -150 -126.5 -239.5
t-274.5 -89.5q-195 0 -318 132.5t-123 344.5z" />
    <glyph glyph-name="Dcaron" unicode="&#x10e;" horiz-adv-x="1247" 
d="M463 1368l-205 260h215l96 -110l97 110h215l-205 -260h-213zM381 231h174q178 0 274.5 106.5t96.5 291.5q0 187 -96.5 293t-274.5 106h-174v-797zM121 0v1257h444q285 0 453 -170t168 -458t-168 -458.5t-453 -170.5h-444z" />
    <glyph glyph-name="dcaron" unicode="&#x10f;" horiz-adv-x="1062" 
d="M1237 989h-199l78 342h199zM698 0v76q-33 -39 -96 -67.5t-133 -28.5q-129 0 -225 65t-143.5 172t-47.5 240t47.5 240.5t143.5 173t225 65.5q70 0 133 -28.5t96 -67.5v491h256v-1331h-256zM698 307v301q-22 47 -69.5 77t-102.5 30q-101 0 -160 -72.5t-59 -185.5
q0 -112 59.5 -184t159.5 -72q57 0 103.5 29t68.5 77z" />
    <glyph glyph-name="Dcroat" unicode="&#x110;" horiz-adv-x="1282" 
d="M51 541v211h105v505h444q285 0 453 -170t168 -458t-168 -458.5t-453 -170.5h-444v541h-105zM416 231h174q178 0 274.5 106.5t96.5 291.5q0 187 -96.5 293t-274.5 106h-174v-276h211v-211h-211v-310z" />
    <glyph glyph-name="dcroat" unicode="&#x111;" horiz-adv-x="1062" 
d="M508 1018v172h190v141h256v-141h111v-172h-111v-1018h-256v76q-33 -39 -96 -67.5t-133 -28.5q-129 0 -225 65t-143.5 172t-47.5 240t47.5 240.5t143.5 173t225 65.5q70 0 133 -28.5t96 -67.5v178h-190zM698 307v301q-22 47 -69.5 77t-102.5 30q-101 0 -160 -72.5
t-59 -185.5q0 -112 59.5 -184t159.5 -72q57 0 103.5 29t68.5 77z" />
    <glyph glyph-name="Emacron" unicode="&#x112;" horiz-adv-x="1056" 
d="M307 1370v186h498v-186h-498zM121 1257h854v-229h-596v-274h541v-224h-541v-299h596v-231h-854v1257z" />
    <glyph glyph-name="emacron" unicode="&#x113;" horiz-adv-x="960" 
d="M262 1057v186h486v-186h-486zM668 299h235q-25 -149 -130.5 -234t-274.5 -85q-199 0 -322 132t-123 345q0 207 124.5 343t316.5 136q197 0 306 -124.5t109 -330.5v-78h-610q6 -102 60 -160.5t139 -58.5q66 0 110.5 29t59.5 86zM496 729q-74 0 -124 -44t-67 -128h354
q-2 75 -45 123.5t-118 48.5z" />
    <glyph glyph-name="Ebreve" unicode="&#x114;" horiz-adv-x="1056" 
d="M555 1358q-126 0 -200 71.5t-74 202.5h180q0 -49 25.5 -73.5t68.5 -24.5q96 0 96 98h180q0 -131 -74.5 -202.5t-201.5 -71.5zM121 1257h854v-229h-596v-274h541v-224h-541v-299h596v-231h-854v1257z" />
    <glyph glyph-name="ebreve" unicode="&#x115;" horiz-adv-x="960" 
d="M668 299h235q-25 -149 -130.5 -234t-274.5 -85q-199 0 -322 132t-123 345q0 207 124.5 343t316.5 136q197 0 306 -124.5t109 -330.5v-78h-610q6 -102 60 -160.5t139 -58.5q66 0 110.5 29t59.5 86zM496 729q-74 0 -124 -44t-67 -128h354q-2 75 -45 123.5t-118 48.5z
M504 1008q-125 0 -199 75.5t-74 214.5h181q0 -118 92 -118t92 118h180q0 -139 -73.5 -214.5t-198.5 -75.5z" />
    <glyph glyph-name="Edotaccent" unicode="&#x116;" horiz-adv-x="1056" 
d="M707 1503q0 -62 -45.5 -103.5t-106.5 -41.5t-106.5 41.5t-45.5 103.5q0 63 45 104.5t107 41.5t107 -41.5t45 -104.5zM121 1257h854v-229h-596v-274h541v-224h-541v-299h596v-231h-854v1257z" />
    <glyph glyph-name="edotaccent" unicode="&#x117;" horiz-adv-x="960" 
d="M668 299h235q-25 -149 -130.5 -234t-274.5 -85q-199 0 -322 132t-123 345q0 207 124.5 343t316.5 136q197 0 306 -124.5t109 -330.5v-78h-610q6 -102 60 -160.5t139 -58.5q66 0 110.5 29t59.5 86zM496 729q-74 0 -124 -44t-67 -128h354q-2 75 -45 123.5t-118 48.5z
M655 1186q0 -63 -44.5 -104.5t-106.5 -41.5t-107 41.5t-45 104.5q0 62 45.5 103.5t106.5 41.5t106 -41.5t45 -103.5z" />
    <glyph glyph-name="Eogonek" unicode="&#x118;" horiz-adv-x="1056" 
d="M121 1257h854v-229h-596v-274h541v-224h-541v-299h596v-231h-70q-80 -112 -92 -137q-10 -22 -10 -43q0 -19 11.5 -31t31.5 -12q27 0 74 33v-152q-60 -43 -127 -43q-78 0 -123 42t-45 112q0 39 17.5 81.5t36.5 70t58 79.5h-616v1257z" />
    <glyph glyph-name="eogonek" unicode="&#x119;" horiz-adv-x="960" 
d="M496 729q-74 0 -124 -44t-67 -128h354q-2 75 -45 123.5t-118 48.5zM545 -18q-6 0 -23 -1t-24 -1q-199 0 -322 132t-123 345q0 207 124.5 343t316.5 136q197 0 306 -124.5t109 -330.5v-78h-610q6 -102 60 -160.5t139 -58.5q65 0 110 29t60 86h235q-19 -134 -129 -240
q-149 -137 -149 -235q0 -47 45 -47q26 0 73 33v-152q-60 -43 -127 -43q-79 0 -125.5 43.5t-46.5 114.5q0 53 25 101t76 108z" />
    <glyph glyph-name="Ecaron" unicode="&#x11a;" horiz-adv-x="1056" 
d="M459 1368l-205 260h215l96 -110l97 110h215l-205 -260h-213zM121 1257h854v-229h-596v-274h541v-224h-541v-299h596v-231h-854v1257z" />
    <glyph glyph-name="ecaron" unicode="&#x11b;" horiz-adv-x="960" 
d="M805 1325l-195 -297h-213l-194 297h200l101 -141l100 141h201zM668 299h235q-25 -149 -130.5 -234t-274.5 -85q-199 0 -322 132t-123 345q0 207 124.5 343t316.5 136q197 0 306 -124.5t109 -330.5v-78h-610q6 -102 60 -160.5t139 -58.5q66 0 110.5 29t59.5 86zM496 729
q-74 0 -124 -44t-67 -128h354q-2 75 -45 123.5t-118 48.5z" />
    <glyph glyph-name="Gcircumflex" unicode="&#x11c;" horiz-adv-x="1271" 
d="M766 1630l205 -260h-215l-97 111l-96 -111h-215l205 260h213zM956 451h-239v208h495v-110q0 -258 -152.5 -413.5t-393.5 -155.5q-174 0 -312 81.5t-216.5 230t-78.5 337.5q0 142 46 263.5t125.5 206t190.5 132t238 47.5q221 0 359 -115.5t174 -310.5h-264
q-35 94 -99.5 143t-169.5 49q-153 0 -243 -115.5t-90 -299.5q0 -186 92 -302t248 -116q118 0 193 64.5t97 175.5z" />
    <glyph glyph-name="gcircumflex" unicode="&#x11d;" horiz-adv-x="1056" 
d="M666 1325l194 -297h-201l-100 141l-100 -141h-201l195 297h213zM694 61v54q-33 -40 -93.5 -67.5t-131.5 -27.5q-128 0 -224 64t-144 167t-48 228q0 124 48 226.5t144 166.5t224 64q71 0 131 -27t94 -65v71h252v-815q0 -226 -122.5 -342t-325.5 -116q-179 0 -292.5 86
t-133.5 239h245q30 -129 181 -129q196 0 196 223zM694 330v299q-25 40 -71 67t-101 27q-99 0 -157 -68t-58 -176q0 -109 58 -177.5t157 -68.5q55 0 101.5 27.5t70.5 69.5z" />
    <glyph glyph-name="Gbreve" unicode="&#x11e;" horiz-adv-x="1271" 
d="M662 1358q-126 0 -200.5 71.5t-74.5 202.5h180q0 -49 26 -73.5t69 -24.5q96 0 96 98h180q0 -131 -74.5 -202.5t-201.5 -71.5zM956 451h-239v208h495v-110q0 -258 -152.5 -413.5t-393.5 -155.5q-174 0 -312 81.5t-216.5 230t-78.5 337.5q0 142 46 263.5t125.5 206
t190.5 132t238 47.5q221 0 359 -115.5t174 -310.5h-264q-35 94 -99.5 143t-169.5 49q-153 0 -243 -115.5t-90 -299.5q0 -186 92 -302t248 -116q118 0 193 64.5t97 175.5z" />
    <glyph glyph-name="gbreve" unicode="&#x11f;" horiz-adv-x="1056" 
d="M694 61v54q-33 -40 -93.5 -67.5t-131.5 -27.5q-128 0 -224 64t-144 167t-48 228q0 124 48 226.5t144 166.5t224 64q71 0 131 -27t94 -65v71h252v-815q0 -226 -122.5 -342t-325.5 -116q-179 0 -292.5 86t-133.5 239h245q30 -129 181 -129q196 0 196 223zM694 330v299
q-25 40 -71 67t-101 27q-99 0 -157 -68t-58 -176q0 -109 58 -177.5t157 -68.5q55 0 101.5 27.5t70.5 69.5zM559 1008q-125 0 -198.5 75.5t-73.5 214.5h180q0 -118 92 -118t92 118h180q0 -139 -73.5 -214.5t-198.5 -75.5z" />
    <glyph glyph-name="Gdotaccent" unicode="&#x120;" horiz-adv-x="1271" 
d="M815 1503q0 -62 -45 -103.5t-106 -41.5t-106.5 41.5t-45.5 103.5q0 63 45 104.5t107 41.5t106.5 -41.5t44.5 -104.5zM956 451h-239v208h495v-110q0 -258 -152.5 -413.5t-393.5 -155.5q-174 0 -312 81.5t-216.5 230t-78.5 337.5q0 142 46 263.5t125.5 206t190.5 132
t238 47.5q221 0 359 -115.5t174 -310.5h-264q-35 94 -99.5 143t-169.5 49q-153 0 -243 -115.5t-90 -299.5q0 -186 92 -302t248 -116q118 0 193 64.5t97 175.5z" />
    <glyph glyph-name="gdotaccent" unicode="&#x121;" horiz-adv-x="1056" 
d="M711 1186q0 -63 -45 -104.5t-107 -41.5t-106.5 41.5t-44.5 104.5q0 62 45 103.5t106 41.5t106.5 -41.5t45.5 -103.5zM694 61v54q-33 -40 -93.5 -67.5t-131.5 -27.5q-128 0 -224 64t-144 167t-48 228q0 124 48 226.5t144 166.5t224 64q71 0 131 -27t94 -65v71h252v-815
q0 -226 -122.5 -342t-325.5 -116q-179 0 -292.5 86t-133.5 239h245q30 -129 181 -129q196 0 196 223zM694 330v299q-25 40 -71 67t-101 27q-99 0 -157 -68t-58 -176q0 -109 58 -177.5t157 -68.5q55 0 101.5 27.5t70.5 69.5z" />
    <glyph glyph-name="Gcommaaccent" unicode="&#x122;" horiz-adv-x="1271" 
d="M522 -461l94 127q-44 8 -73 41t-29 82q0 57 41.5 94t103.5 37q59 0 100.5 -38.5t41.5 -102.5q0 -70 -68 -160l-55 -80h-156zM956 451h-239v208h495v-110q0 -258 -152.5 -413.5t-393.5 -155.5q-174 0 -312 81.5t-216.5 230t-78.5 337.5q0 142 46 263.5t125.5 206
t190.5 132t238 47.5q221 0 359 -115.5t174 -310.5h-264q-35 94 -99.5 143t-169.5 49q-153 0 -243 -115.5t-90 -299.5q0 -186 92 -302t248 -116q118 0 193 64.5t97 175.5z" />
    <glyph glyph-name="gcommaaccent" unicode="&#x123;" horiz-adv-x="1056" 
d="M694 1425l-96 -131q46 -9 75 -43t29 -84q0 -58 -42.5 -95.5t-104.5 -37.5t-103.5 39t-41.5 105q0 74 67 163l62 84h155zM694 61v54q-33 -40 -93.5 -67.5t-131.5 -27.5q-128 0 -224 64t-144 167t-48 228q0 124 48 226.5t144 166.5t224 64q71 0 131 -27t94 -65v71h252v-815
q0 -226 -122.5 -342t-325.5 -116q-179 0 -292.5 86t-133.5 239h245q30 -129 181 -129q196 0 196 223zM694 330v299q-25 40 -71 67t-101 27q-99 0 -157 -68t-58 -176q0 -109 58 -177.5t157 -68.5q55 0 101.5 27.5t70.5 69.5z" />
    <glyph glyph-name="Hcircumflex" unicode="&#x124;" horiz-adv-x="1335" 
d="M952 1257h262v-1257h-262v528h-569v-528h-262v1257h262v-499h569v499zM772 1630l205 -260h-215l-96 111l-97 -111h-215l205 260h213z" />
    <glyph glyph-name="hcircumflex" unicode="&#x125;" horiz-adv-x="1034" 
d="M111 0v1331h254v-500q39 46 104 75.5t141 29.5q153 0 238.5 -91.5t85.5 -246.5v-598h-254v545q0 74 -38.5 118t-111.5 44q-60 0 -105 -34t-60 -93v-580h-254zM625 1665l204 -260h-215l-96 111l-96 -111h-215l205 260h213z" />
    <glyph glyph-name="Hbar" unicode="&#x126;" horiz-adv-x="1398" 
d="M51 856v209h101v192h262v-192h571v192h262v-192h101v-209h-101v-856h-262v442h-571v-442h-262v856h-101zM414 651h571v205h-571v-205z" />
    <glyph glyph-name="hbar" unicode="&#x127;" horiz-adv-x="1034" 
d="M-2 1018v172h113v141h254v-141h190v-172h-190v-187q39 46 104 75.5t141 29.5q153 0 238.5 -91.5t85.5 -246.5v-598h-254v545q0 74 -38.5 118t-111.5 44q-60 0 -105 -34t-60 -93v-580h-254v1018h-113z" />
    <glyph glyph-name="Itilde" unicode="&#x128;" horiz-adv-x="501" 
d="M383 1257v-1257h-262v1257h262zM412 1642h145q0 -129 -43 -206.5t-131 -77.5q-42 0 -84.5 21.5t-80 43t-66.5 21.5q-57 0 -60 -80h-145q0 129 43 207t131 78q42 0 84.5 -21.5t80 -43t66.5 -21.5q57 0 60 79z" />
    <glyph glyph-name="itilde" unicode="&#x129;" horiz-adv-x="475" 
d="M352 1317h140q0 -128 -39 -206.5t-115 -78.5q-34 0 -65.5 22t-57 44t-45.5 22q-48 0 -51 -80h-137q0 128 38 206.5t113 78.5q34 0 65.5 -22t57 -44t45.5 -22q48 0 51 80zM365 915v-915h-254v915h254z" />
    <glyph glyph-name="Imacron" unicode="&#x12a;" horiz-adv-x="501" 
d="M383 1257v-1257h-262v1257h262zM4 1370v186h498v-186h-498z" />
    <glyph glyph-name="imacron" unicode="&#x12b;" horiz-adv-x="475" 
d="M365 915v-915h-254v915h254zM23 1057v186h428v-186h-428z" />
    <glyph glyph-name="Ibreve" unicode="&#x12c;" horiz-adv-x="501" 
d="M383 1257v-1257h-262v1257h262zM250 1358q-126 0 -200.5 71.5t-74.5 202.5h181q0 -49 25.5 -73.5t68.5 -24.5q96 0 96 98h180q0 -131 -74.5 -202.5t-201.5 -71.5z" />
    <glyph glyph-name="ibreve" unicode="&#x12d;" horiz-adv-x="475" 
d="M238 1008q-110 0 -177 75.5t-67 214.5h170q0 -118 74 -118q73 0 73 118h170q0 -139 -66.5 -214.5t-176.5 -75.5zM365 915v-915h-254v915h254z" />
    <glyph glyph-name="Iogonek" unicode="&#x12e;" horiz-adv-x="501" 
d="M383 1257v-1257q-10 -14 -24.5 -34t-21 -29.5t-16 -23.5t-14 -20.5t-10 -16.5t-8 -15.5t-5 -13t-3 -14t-0.5 -13.5q0 -19 11 -31t30 -12q26 0 73 33v-152q-57 -43 -125 -43q-80 0 -125 42t-45 112q0 37 16.5 77t32.5 65t53 74q7 10 11 15h-92v1257h262z" />
    <glyph glyph-name="iogonek" unicode="&#x12f;" horiz-adv-x="475" 
d="M365 915v-915q-12 -18 -30.5 -43t-25.5 -35t-17.5 -26t-14.5 -23t-8.5 -17.5t-5.5 -18.5t-1 -17q0 -19 11 -31t30 -12q29 0 76 33v-152q-60 -43 -127 -43q-78 0 -123 42t-45 112q0 30 7.5 58t27.5 61.5t32 51t44 60.5h-84v915h254zM387 1180q0 -63 -44 -104.5t-105 -41.5
q-63 0 -107.5 41.5t-44.5 104.5q0 62 44.5 103.5t107.5 41.5q61 0 105 -41.5t44 -103.5z" />
    <glyph glyph-name="Idotaccent" unicode="&#x130;" horiz-adv-x="501" 
d="M383 1257v-1257h-262v1257h262zM403 1503q0 -62 -45 -103.5t-106 -41.5t-106.5 41.5t-45.5 103.5q0 63 45 104.5t107 41.5t106.5 -41.5t44.5 -104.5z" />
    <glyph glyph-name="dotlessi" unicode="&#x131;" horiz-adv-x="475" 
d="M365 915v-915h-254v915h254z" />
    <glyph glyph-name="IJ" unicode="&#x132;" horiz-adv-x="1468" 
d="M457 399h270q8 -88 54 -135t130 -47q99 0 147 59t48 181v800h262v-802q0 -233 -122.5 -354t-330.5 -121q-209 0 -327.5 114t-130.5 305zM383 1257v-1257h-262v1257h262z" />
    <glyph glyph-name="ij" unicode="&#x133;" horiz-adv-x="946" 
d="M365 915v-915h-254v915h254zM387 1180q0 -63 -44 -104.5t-105 -41.5q-63 0 -107.5 41.5t-44.5 104.5q0 62 44.5 103.5t107.5 41.5q61 0 105 -41.5t44 -103.5zM840 915v-952q0 -154 -81.5 -237.5t-238.5 -83.5q-67 0 -98 10v203q49 -7 55 -7q56 0 82.5 28t26.5 89v950h254
zM862 1180q0 -63 -44 -104.5t-105 -41.5q-63 0 -107.5 41.5t-44.5 104.5q0 62 44.5 103.5t107.5 41.5q61 0 105 -41.5t44 -103.5z" />
    <glyph glyph-name="Jcircumflex" unicode="&#x134;" horiz-adv-x="1042" 
d="M31 399h270q8 -88 54 -135t130 -47q99 0 147 59t48 181v800h262v-802q0 -233 -123 -354t-332 -121q-208 0 -326 114t-130 305zM920 1630l204 -260h-215l-96 111l-96 -111h-215l205 260h213z" />
    <glyph glyph-name="jcircumflex" unicode="&#x135;" horiz-adv-x="471" 
d="M344 1325l158 -297h-195l-69 143l-72 -143h-195l160 297h213zM365 915v-952q0 -154 -81.5 -237.5t-238.5 -83.5q-67 0 -98 10v203q49 -7 55 -7q56 0 82.5 28t26.5 89v950h254z" />
    <glyph glyph-name="Kcommaaccent" unicode="&#x136;" horiz-adv-x="1214" 
d="M442 -461l95 127q-45 8 -74 41t-29 82q0 57 42 94t104 37q59 0 100 -38.5t41 -102.5q0 -70 -68 -160l-55 -80h-156zM383 1257v-565l473 565h318l-480 -563l498 -694h-318l-372 514l-119 -141v-373h-262v1257h262z" />
    <glyph glyph-name="kcommaaccent" unicode="&#x137;" horiz-adv-x="1021" 
d="M365 -461l94 127q-45 8 -74 41t-29 82q0 57 42 94t104 37q59 0 100 -38.5t41 -102.5q0 -70 -68 -160l-55 -80h-155zM707 0l-269 369l-73 -80v-289h-254v1331h254v-756l313 340h315l-370 -389l385 -526h-301z" />
    <glyph glyph-name="kgreenlandic" unicode="&#x138;" horiz-adv-x="1021" 
d="M707 0l-269 369l-73 -80v-289h-254v915h254v-340l313 340h315l-370 -389l385 -526h-301z" />
    <glyph glyph-name="Lacute" unicode="&#x139;" horiz-adv-x="1038" 
d="M385 1370h-250l164 250h276zM121 0v1257h262v-1026h586v-231h-848z" />
    <glyph glyph-name="lacute" unicode="&#x13a;" horiz-adv-x="475" 
d="M358 1421h-249l163 250h277zM365 1331v-1331h-254v1331h254z" />
    <glyph glyph-name="Lcommaaccent" unicode="&#x13b;" horiz-adv-x="1038" 
d="M426 -461l94 127q-44 8 -73 41t-29 82q0 57 41.5 94t103.5 37q59 0 100.5 -38.5t41.5 -102.5q0 -70 -68 -160l-55 -80h-156zM121 0v1257h262v-1026h586v-231h-848z" />
    <glyph glyph-name="lcommaaccent" unicode="&#x13c;" horiz-adv-x="475" 
d="M100 -461l95 127q-45 8 -74 41t-29 82q0 57 42 94t104 37q59 0 100 -38.5t41 -102.5q0 -70 -68 -160l-55 -80h-156zM365 1331v-1331h-254v1331h254z" />
    <glyph glyph-name="Lcaron" unicode="&#x13d;" horiz-adv-x="1038" 
d="M737 915h-198l77 342h199zM121 0v1257h262v-1026h586v-231h-848z" />
    <glyph glyph-name="lcaron" unicode="&#x13e;" horiz-adv-x="475" 
d="M647 989h-198l77 342h199zM365 1331v-1331h-254v1331h254z" />
    <glyph glyph-name="Ldot" unicode="&#x13f;" horiz-adv-x="1038" 
d="M121 0v1257h262v-1026h586v-231h-848zM909 664q0 -63 -44.5 -104.5t-106.5 -41.5t-107 41.5t-45 104.5q0 62 45.5 103.5t106.5 41.5t106 -41.5t45 -103.5z" />
    <glyph glyph-name="ldot" unicode="&#x140;" horiz-adv-x="798" 
d="M365 1331v-1331h-254v1331h254zM786 672q0 -63 -44.5 -104.5t-106.5 -41.5t-107 41.5t-45 104.5q0 62 45.5 103.5t106.5 41.5t106 -41.5t45 -103.5z" />
    <glyph glyph-name="Lslash" unicode="&#x141;" horiz-adv-x="1081" 
d="M45 412v221l119 49v575h262v-479l283 117v-221l-283 -117v-326h586v-231h-848v461z" />
    <glyph glyph-name="lslash" unicode="&#x142;" horiz-adv-x="561" 
d="M408 1331v-461l110 64v-201l-110 -65v-668h-254v547l-103 -62v203l103 60v583h254z" />
    <glyph glyph-name="Nacute" unicode="&#x143;" horiz-adv-x="1294" 
d="M760 1370h-250l164 250h276zM1174 1257v-1257h-207l-594 838v-838h-252v1257h246l555 -794v794h252z" />
    <glyph glyph-name="nacute" unicode="&#x144;" horiz-adv-x="1034" 
d="M639 1040h-229l161 291h252zM111 0v915h254v-84q39 46 104 75.5t141 29.5q153 0 238.5 -91.5t85.5 -246.5v-598h-254v545q0 74 -38.5 118t-111.5 44q-60 0 -105 -34t-60 -93v-580h-254z" />
    <glyph glyph-name="Ncommaaccent" unicode="&#x145;" horiz-adv-x="1294" 
d="M510 -461l94 127q-44 8 -73 41t-29 82q0 57 41.5 94t103.5 37q59 0 100 -38.5t41 -102.5q0 -71 -67 -160l-55 -80h-156zM1174 1257v-1257h-207l-594 838v-838h-252v1257h246l555 -794v794h252z" />
    <glyph glyph-name="ncommaaccent" unicode="&#x146;" horiz-adv-x="1034" 
d="M395 -461l94 127q-44 8 -73 41t-29 82q0 57 41.5 94t103.5 37q59 0 100.5 -38.5t41.5 -102.5q0 -70 -68 -160l-55 -80h-156zM111 0v915h254v-84q39 46 104 75.5t141 29.5q153 0 238.5 -91.5t85.5 -246.5v-598h-254v545q0 74 -38.5 118t-111.5 44q-60 0 -105 -34t-60 -93
v-580h-254z" />
    <glyph glyph-name="Ncaron" unicode="&#x147;" horiz-adv-x="1294" 
d="M541 1368l-205 260h215l96 -110l96 110h215l-204 -260h-213zM1174 1257v-1257h-207l-594 838v-838h-252v1257h246l555 -794v794h252z" />
    <glyph glyph-name="ncaron" unicode="&#x148;" horiz-adv-x="1034" 
d="M836 1325l-195 -297h-213l-195 297h201l101 -141l100 141h201zM111 0v915h254v-84q39 46 104 75.5t141 29.5q153 0 238.5 -91.5t85.5 -246.5v-598h-254v545q0 74 -38.5 118t-111.5 44q-60 0 -105 -34t-60 -93v-580h-254z" />
    <glyph glyph-name="Eng" unicode="&#x14a;" horiz-adv-x="1294" 
d="M563 -336v242q86 -47 170 -47q93 0 135.5 49t46.5 164l-542 766v-838h-252v1257h246l555 -794v794h252v-1173q0 -459 -412 -459q-92 0 -199 39z" />
    <glyph glyph-name="eng" unicode="&#x14b;" horiz-adv-x="1034" 
d="M680 -35v580q0 74 -38.5 118t-111.5 44q-60 0 -105 -34t-60 -93v-580h-254v915h254v-84q39 46 104 75.5t141 29.5q153 0 238.5 -91.5t85.5 -246.5v-635q0 -154 -81.5 -237.5t-238.5 -83.5q-65 0 -96 10v203q42 -7 55 -7q55 0 81 28t26 89z" />
    <glyph glyph-name="Omacron" unicode="&#x14c;" horiz-adv-x="1310" 
d="M406 1370v186h497v-186h-497zM1249 629q0 -186 -75.5 -334t-212 -231.5t-308.5 -83.5t-308 83.5t-211 231.5t-75 334q0 187 75 335t210.5 231t308.5 83t309 -83t211.5 -231.5t75.5 -334.5zM985 629q0 185 -91 300t-241 115q-148 0 -237.5 -114.5t-89.5 -300.5t89.5 -301
t237.5 -115q150 0 241 115t91 301z" />
    <glyph glyph-name="omacron" unicode="&#x14d;" horiz-adv-x="1001" 
d="M260 1057v186h485v-186h-485zM950 457q0 -211 -124.5 -344t-323.5 -133t-324 133t-125 344q0 212 125 345.5t324 133.5t323.5 -133t124.5 -346zM698 457q0 119 -51.5 191.5t-144.5 72.5t-145 -73t-52 -191q0 -117 52 -189.5t145 -72.5t144.5 72.5t51.5 189.5z" />
    <glyph glyph-name="Obreve" unicode="&#x14e;" horiz-adv-x="1310" 
d="M653 1358q-126 0 -200 71.5t-74 202.5h180q0 -49 25.5 -73.5t68.5 -24.5q97 0 97 98h180q0 -131 -75 -202.5t-202 -71.5zM1249 629q0 -186 -75.5 -334t-212 -231.5t-308.5 -83.5t-308 83.5t-211 231.5t-75 334q0 187 75 335t210.5 231t308.5 83t309 -83t211.5 -231.5
t75.5 -334.5zM985 629q0 185 -91 300t-241 115q-148 0 -237.5 -114.5t-89.5 -300.5t89.5 -301t237.5 -115q150 0 241 115t91 301z" />
    <glyph glyph-name="obreve" unicode="&#x14f;" horiz-adv-x="1001" 
d="M950 457q0 -211 -124.5 -344t-323.5 -133t-324 133t-125 344q0 212 125 345.5t324 133.5t323.5 -133t124.5 -346zM698 457q0 119 -51.5 191.5t-144.5 72.5t-145 -73t-52 -191q0 -117 52 -189.5t145 -72.5t144.5 72.5t51.5 189.5zM502 1008q-125 0 -199 75.5t-74 214.5
h181q0 -118 92 -118t92 118h180q0 -139 -73.5 -214.5t-198.5 -75.5z" />
    <glyph glyph-name="Ohungarumlaut" unicode="&#x150;" horiz-adv-x="1310" 
d="M1249 629q0 -186 -75.5 -334t-212 -231.5t-308.5 -83.5t-308 83.5t-211 231.5t-75 334q0 187 75 335t210.5 231t308.5 83t309 -83t211.5 -231.5t75.5 -334.5zM985 629q0 185 -91 300t-241 115q-148 0 -237.5 -114.5t-89.5 -300.5t89.5 -301t237.5 -115q150 0 241 115
t91 301zM616 1370h-208l135 250h215zM920 1370h-211l137 250h213z" />
    <glyph glyph-name="ohungarumlaut" unicode="&#x151;" horiz-adv-x="1001" 
d="M449 1040h-201l137 291h203zM737 1040h-200l137 291h203zM950 457q0 -211 -124.5 -344t-323.5 -133t-324 133t-125 344q0 212 125 345.5t324 133.5t323.5 -133t124.5 -346zM698 457q0 119 -51.5 191.5t-144.5 72.5t-145 -73t-52 -191q0 -117 52 -189.5t145 -72.5
t144.5 72.5t51.5 189.5z" />
    <glyph glyph-name="OE" unicode="&#x152;" horiz-adv-x="1703" 
d="M1622 1257v-229h-557v-274h502v-224h-502v-299h557v-231h-942q-285 0 -453 170.5t-168 458.5t168 458t453 170h942zM692 231h115v797h-115q-179 0 -274.5 -106t-95.5 -293q0 -186 95.5 -292t274.5 -106z" />
    <glyph glyph-name="oe" unicode="&#x153;" horiz-adv-x="1593" 
d="M1133 -20q-193 0 -318 131q-121 -131 -313 -131q-199 0 -324 133t-125 344q0 212 125 345.5t324 133.5q190 0 313 -133q127 133 313 133q197 0 306.5 -124.5t109.5 -330.5v-78h-610q6 -102 60 -160.5t139 -58.5q65 0 110 29t60 86h235q-25 -149 -130.5 -234t-274.5 -85z
M698 457q0 119 -51.5 191.5t-144.5 72.5t-145 -73t-52 -191q0 -117 52 -189.5t145 -72.5t144.5 72.5t51.5 189.5zM1130 729q-74 0 -123.5 -44t-66.5 -128h354q-3 75 -46 123.5t-118 48.5z" />
    <glyph glyph-name="Racute" unicode="&#x154;" horiz-adv-x="1153" 
d="M518 469h-137v-469h-260v1257h518q202 0 321 -104.5t119 -294.5q0 -148 -75.5 -243t-210.5 -128l331 -487h-295zM381 1034v-350h242q96 0 147 47t51 127q0 81 -51 128.5t-147 47.5h-242zM686 1370h-250l164 250h277z" />
    <glyph glyph-name="racute" unicode="&#x155;" horiz-adv-x="718" 
d="M494 1040h-230l162 291h252zM666 920v-254q-53 30 -127 30q-66 0 -113.5 -33.5t-60.5 -95.5v-567h-254v915h254v-90q30 51 84 81t120 30q69 0 97 -16z" />
    <glyph glyph-name="Rcommaaccent" unicode="&#x156;" horiz-adv-x="1153" 
d="M518 469h-137v-469h-260v1257h518q202 0 321 -104.5t119 -294.5q0 -148 -75.5 -243t-210.5 -128l331 -487h-295zM381 1034v-350h242q96 0 147 47t51 127q0 81 -51 128.5t-147 47.5h-242zM436 -461l94 127q-44 8 -73 41t-29 82q0 57 41.5 94t103.5 37q59 0 100.5 -38.5
t41.5 -102.5q0 -70 -68 -160l-55 -80h-156z" />
    <glyph glyph-name="rcommaaccent" unicode="&#x157;" horiz-adv-x="718" 
d="M96 -461l94 127q-44 8 -73 41t-29 82q0 57 41.5 94t103.5 37q59 0 100.5 -38.5t41.5 -102.5q0 -70 -68 -160l-55 -80h-156zM666 920v-254q-53 30 -127 30q-66 0 -113.5 -33.5t-60.5 -95.5v-567h-254v915h254v-90q30 51 84 81t120 30q69 0 97 -16z" />
    <glyph glyph-name="Rcaron" unicode="&#x158;" horiz-adv-x="1153" 
d="M518 469h-137v-469h-260v1257h518q202 0 321 -104.5t119 -294.5q0 -148 -75.5 -243t-210.5 -128l331 -487h-295zM381 1034v-350h242q96 0 147 47t51 127q0 81 -51 128.5t-147 47.5h-242zM467 1368l-205 260h215l96 -110l97 110h215l-205 -260h-213z" />
    <glyph glyph-name="rcaron" unicode="&#x159;" horiz-adv-x="718" 
d="M692 1325l-194 -297h-213l-195 297h201l100 -141l101 141h200zM666 920v-254q-53 30 -127 30q-66 0 -113.5 -33.5t-60.5 -95.5v-567h-254v915h254v-90q30 51 84 81t120 30q69 0 97 -16z" />
    <glyph glyph-name="Sacute" unicode="&#x15a;" horiz-adv-x="1085" 
d="M35 358h270q51 -161 250 -161q97 0 154 41.5t57 115.5q0 57 -36 90t-118 52l-225 51q-319 73 -319 344q0 170 127 278.5t325 108.5q208 0 335 -99.5t159 -265.5h-260q-23 68 -81 109t-151 41q-90 0 -144 -40.5t-54 -107.5q0 -103 141 -137l229 -53q158 -36 244 -125.5
t86 -228.5q0 -179 -131.5 -285t-335.5 -106q-212 0 -351 99.5t-171 278.5zM645 1370h-250l164 250h277z" />
    <glyph glyph-name="sacute" unicode="&#x15b;" horiz-adv-x="894" 
d="M553 1040h-229l161 291h252zM51 272h252q15 -49 55.5 -74.5t98.5 -25.5q60 0 94.5 23.5t34.5 66.5q0 30 -22 48t-70 30l-185 41q-113 27 -175 88t-62 170q0 132 104 214.5t260 82.5q169 0 267 -75t122 -208h-241q-28 90 -144 90q-49 0 -85 -23t-36 -63q0 -27 19.5 -43.5
t62.5 -27.5l189 -43q244 -59 244 -267q0 -136 -105.5 -216t-269.5 -80q-169 0 -278.5 77t-129.5 215z" />
    <glyph glyph-name="Scircumflex" unicode="&#x15c;" horiz-adv-x="1085" 
d="M35 358h270q51 -161 250 -161q97 0 154 41.5t57 115.5q0 57 -36 90t-118 52l-225 51q-319 73 -319 344q0 170 127 278.5t325 108.5q208 0 335 -99.5t159 -265.5h-260q-23 68 -81 109t-151 41q-90 0 -144 -40.5t-54 -107.5q0 -103 141 -137l229 -53q158 -36 244 -125.5
t86 -228.5q0 -179 -131.5 -285t-335.5 -106q-212 0 -351 99.5t-171 278.5zM649 1630l205 -260h-215l-96 111l-97 -111h-215l205 260h213z" />
    <glyph glyph-name="scircumflex" unicode="&#x15d;" horiz-adv-x="894" 
d="M555 1325l195 -297h-201l-100 141l-101 -141h-201l195 297h213zM51 272h252q15 -49 55.5 -74.5t98.5 -25.5q60 0 94.5 23.5t34.5 66.5q0 30 -22 48t-70 30l-185 41q-113 27 -175 88t-62 170q0 132 104 214.5t260 82.5q169 0 267 -75t122 -208h-241q-28 90 -144 90
q-49 0 -85 -23t-36 -63q0 -27 19.5 -43.5t62.5 -27.5l189 -43q244 -59 244 -267q0 -136 -105.5 -216t-269.5 -80q-169 0 -278.5 77t-129.5 215z" />
    <glyph glyph-name="Scedilla" unicode="&#x15e;" horiz-adv-x="1085" 
d="M35 358h270q51 -161 250 -161q97 0 154 41.5t57 115.5q0 57 -36 90t-118 52l-225 51q-319 73 -319 344q0 170 127 278.5t325 108.5q208 0 335 -99.5t159 -265.5h-260q-23 68 -81 109t-151 41q-90 0 -144 -40.5t-54 -107.5q0 -103 141 -137l229 -53q158 -36 244 -125.5
t86 -228.5q0 -179 -131.5 -285t-335.5 -106q-212 0 -351 99.5t-171 278.5zM508 -381h-225l143 285h233z" />
    <glyph glyph-name="scedilla" unicode="&#x15f;" horiz-adv-x="894" 
d="M51 272h252q15 -49 55.5 -74.5t98.5 -25.5q60 0 94.5 23.5t34.5 66.5q0 30 -22 48t-70 30l-185 41q-113 27 -175 88t-62 170q0 132 104 214.5t260 82.5q169 0 267 -75t122 -208h-241q-28 90 -144 90q-49 0 -85 -23t-36 -63q0 -27 19.5 -43.5t62.5 -27.5l189 -43
q244 -59 244 -267q0 -136 -105.5 -216t-269.5 -80q-169 0 -278.5 77t-129.5 215zM420 -381h-225l143 285h233z" />
    <glyph glyph-name="Scaron" unicode="&#x160;" horiz-adv-x="1085" 
d="M436 1368l-205 260h215l97 -110l96 110h215l-205 -260h-213zM35 358h270q51 -161 250 -161q97 0 154 41.5t57 115.5q0 57 -36 90t-118 52l-225 51q-319 73 -319 344q0 170 127 278.5t325 108.5q208 0 335 -99.5t159 -265.5h-260q-23 68 -81 109t-151 41q-90 0 -144 -40.5
t-54 -107.5q0 -103 141 -137l229 -53q158 -36 244 -125.5t86 -228.5q0 -179 -131.5 -285t-335.5 -106q-212 0 -351 99.5t-171 278.5z" />
    <glyph glyph-name="scaron" unicode="&#x161;" horiz-adv-x="894" 
d="M750 1325l-195 -297h-213l-195 297h201l101 -141l100 141h201zM51 272h252q15 -49 55.5 -74.5t98.5 -25.5q60 0 94.5 23.5t34.5 66.5q0 30 -22 48t-70 30l-185 41q-113 27 -175 88t-62 170q0 132 104 214.5t260 82.5q169 0 267 -75t122 -208h-241q-28 90 -144 90
q-49 0 -85 -23t-36 -63q0 -27 19.5 -43.5t62.5 -27.5l189 -43q244 -59 244 -267q0 -136 -105.5 -216t-269.5 -80q-169 0 -278.5 77t-129.5 215z" />
    <glyph glyph-name="Tcedilla" unicode="&#x162;" horiz-adv-x="1177" 
d="M453 -461l94 127q-45 8 -74 41t-29 82q0 57 42 94t104 37q59 0 100 -38.5t41 -102.5q0 -71 -67 -160l-56 -80h-155zM53 1028v229h1073v-229h-405v-1028h-264v1028h-404z" />
    <glyph glyph-name="tcedilla" unicode="&#x163;" horiz-adv-x="706" 
d="M164 276v435h-137v204h137v248h254v-248h200v-204h-200v-398q0 -106 104 -106q55 0 111 31v-228q-54 -28 -164 -28q-144 0 -224.5 73t-80.5 221zM272 -461l95 127q-45 8 -74 41t-29 82q0 57 42 94t104 37q59 0 100 -38.5t41 -102.5q0 -70 -68 -160l-55 -80h-156z" />
    <glyph glyph-name="Tcaron" unicode="&#x164;" horiz-adv-x="1177" 
d="M483 1368l-204 260h215l96 -110l96 110h215l-205 -260h-213zM53 1028v229h1073v-229h-405v-1028h-264v1028h-404z" />
    <glyph glyph-name="tcaron" unicode="&#x165;" horiz-adv-x="706" 
d="M164 276v435h-137v204h137v248h254v-248h200v-204h-200v-398q0 -106 104 -106q55 0 111 31v-228q-54 -28 -164 -28q-144 0 -224.5 73t-80.5 221zM702 1004h-198l78 342h198z" />
    <glyph glyph-name="Tbar" unicode="&#x166;" horiz-adv-x="1177" 
d="M53 1028v229h1073v-229h-405v-287h209v-217h-209v-524h-264v524h-207v217h207v287h-404z" />
    <glyph glyph-name="tbar" unicode="&#x167;" horiz-adv-x="714" 
d="M59 408v176h115v143h-139v188h139v248h254v-248h199v-188h-199v-143h158v-176h-158v-95q0 -106 102 -106q55 0 111 31v-228q-54 -28 -162 -28q-144 0 -224.5 73t-80.5 221v132h-115z" />
    <glyph glyph-name="Utilde" unicode="&#x168;" horiz-adv-x="1249" 
d="M784 1642h146q0 -129 -43 -206.5t-131 -77.5q-42 0 -84.5 21.5t-80.5 43t-67 21.5q-56 0 -59 -80h-146q0 129 43.5 207t131.5 78q42 0 84.5 -21.5t80 -43t66.5 -21.5q56 0 59 79zM625 -20q-241 0 -382 136t-141 390v751h263v-725q0 -159 67 -238t193 -79t193 79t67 238
v725h262v-751q0 -254 -140 -390t-382 -136z" />
    <glyph glyph-name="utilde" unicode="&#x169;" horiz-adv-x="1030" 
d="M922 915v-915h-254v84q-41 -46 -105.5 -75t-140.5 -29q-152 0 -237 91.5t-85 245.5v598h254v-546q0 -75 37.5 -118.5t110.5 -43.5q60 0 105.5 34t58.5 93v581h256zM664 1317h145q0 -129 -44 -207t-132 -78q-38 0 -76 23.5t-70 47t-57 23.5q-58 0 -61 -86h-146
q0 129 44 207t132 78q38 0 76.5 -23.5t70.5 -47t56 -23.5q59 0 62 86z" />
    <glyph glyph-name="Umacron" unicode="&#x16a;" horiz-adv-x="1249" 
d="M377 1370v186h497v-186h-497zM625 -20q-241 0 -382 136t-141 390v751h263v-725q0 -159 67 -238t193 -79t193 79t67 238v725h262v-751q0 -254 -140 -390t-382 -136z" />
    <glyph glyph-name="umacron" unicode="&#x16b;" horiz-adv-x="1030" 
d="M922 915v-915h-254v84q-41 -46 -105.5 -75t-140.5 -29q-152 0 -237 91.5t-85 245.5v598h254v-546q0 -75 37.5 -118.5t110.5 -43.5q60 0 105.5 34t58.5 93v581h256zM274 1057v186h486v-186h-486z" />
    <glyph glyph-name="Ubreve" unicode="&#x16c;" horiz-adv-x="1249" 
d="M625 1358q-126 0 -200.5 71.5t-74.5 202.5h180q0 -49 26 -73.5t69 -24.5q96 0 96 98h180q0 -131 -74.5 -202.5t-201.5 -71.5zM625 -20q-241 0 -382 136t-141 390v751h263v-725q0 -159 67 -238t193 -79t193 79t67 238v725h262v-751q0 -254 -140 -390t-382 -136z" />
    <glyph glyph-name="ubreve" unicode="&#x16d;" horiz-adv-x="1030" 
d="M922 915v-915h-254v84q-41 -46 -105.5 -75t-140.5 -29q-152 0 -237 91.5t-85 245.5v598h254v-546q0 -75 37.5 -118.5t110.5 -43.5q60 0 105.5 34t58.5 93v581h256zM516 1008q-125 0 -198.5 75.5t-73.5 214.5h180q0 -118 92 -118t92 118h180q0 -139 -73.5 -214.5
t-198.5 -75.5z" />
    <glyph glyph-name="Uring" unicode="&#x16e;" horiz-adv-x="1249" 
d="M625 -20q-241 0 -382 136t-141 390v751h263v-725q0 -159 67 -238t193 -79t193 79t67 238v725h262v-751q0 -254 -140 -390t-382 -136zM827 1522q0 -85 -58 -142t-144 -57t-144.5 57t-58.5 142t58.5 141.5t144.5 56.5t144 -56.5t58 -141.5zM707 1522q0 34 -24 58t-58 24
t-57 -24t-23 -58t23 -57t57 -23t58 23t24 57z" />
    <glyph glyph-name="uring" unicode="&#x16f;" horiz-adv-x="1030" 
d="M719 1196q0 -85 -58.5 -142t-144.5 -57t-144.5 57t-58.5 142t58.5 142t144.5 57t144.5 -57t58.5 -142zM598 1196q0 34 -24 58t-58 24t-57 -24t-23 -58t23 -57t57 -23t58 23t24 57zM922 915v-915h-254v84q-41 -46 -105.5 -75t-140.5 -29q-152 0 -237 91.5t-85 245.5v598
h254v-546q0 -75 37.5 -118.5t110.5 -43.5q60 0 105.5 34t58.5 93v581h256z" />
    <glyph glyph-name="Uhungarumlaut" unicode="&#x170;" horiz-adv-x="1249" 
d="M625 -20q-241 0 -382 136t-141 390v751h263v-725q0 -159 67 -238t193 -79t193 79t67 238v725h262v-751q0 -254 -140 -390t-382 -136zM588 1370h-209l135 250h215zM891 1370h-211l137 250h213z" />
    <glyph glyph-name="uhungarumlaut" unicode="&#x171;" horiz-adv-x="1030" 
d="M922 915v-915h-254v84q-41 -46 -105.5 -75t-140.5 -29q-152 0 -237 91.5t-85 245.5v598h254v-546q0 -75 37.5 -118.5t110.5 -43.5q60 0 105.5 34t58.5 93v581h256zM463 1040h-201l137 291h203zM752 1040h-201l137 291h203z" />
    <glyph glyph-name="Uogonek" unicode="&#x172;" horiz-adv-x="1249" 
d="M625 -20q-241 0 -382 136t-141 390v751h263v-725q0 -159 67 -238t193 -79t193 79t67 238v725h262v-751q0 -163 -55.5 -271.5t-171.5 -187.5q-189 -128 -189 -227q0 -19 11.5 -31t31.5 -12q27 0 74 33v-152q-60 -43 -127 -43q-78 0 -123 42t-45 112q0 102 104 211h-32z
" />
    <glyph glyph-name="uogonek" unicode="&#x173;" horiz-adv-x="1030" 
d="M922 915v-915q-81 -112 -92 -134q-11 -23 -11 -46q0 -19 10.5 -31t30.5 -12q27 0 74 33v-152q-60 -43 -125 -43q-80 0 -125 42t-45 112q0 37 16.5 77t32.5 65t53 74q7 10 11 15h-84v84q-41 -46 -105.5 -75t-140.5 -29q-152 0 -237 91.5t-85 245.5v598h254v-546
q0 -75 37.5 -118.5t110.5 -43.5q60 0 105.5 34t58.5 93v581h256z" />
    <glyph glyph-name="Wcircumflex" unicode="&#x174;" horiz-adv-x="1626" 
d="M715 1257h205l217 -845l206 845h259l-328 -1257h-240l-221 829l-221 -829h-240l-327 1257h264l205 -845zM920 1630l204 -260h-215l-96 111l-96 -111h-215l205 260h213z" />
    <glyph glyph-name="wcircumflex" unicode="&#x175;" horiz-adv-x="1376" 
d="M795 1325l194 -297h-201l-100 141l-100 -141h-201l195 297h213zM788 915l152 -583l164 583h246l-279 -915h-233l-150 561l-149 -561h-234l-278 915h254l163 -583l150 583h194z" />
    <glyph glyph-name="Ycircumflex" unicode="&#x176;" horiz-adv-x="1214" 
d="M612 725l303 532h277l-457 -780v-477h-260v477l-452 780h284zM713 1630l205 -260h-216l-96 111l-96 -111h-215l205 260h213z" />
    <glyph glyph-name="ycircumflex" unicode="&#x177;" horiz-adv-x="997" 
d="M494 -338h-250l133 334l-350 919h268l211 -608l209 608h256zM610 1325l195 -297h-201l-100 141l-101 -141h-200l194 297h213z" />
    <glyph glyph-name="Ydieresis" unicode="&#x178;" horiz-adv-x="1214" 
d="M612 725l303 532h277l-457 -780v-477h-260v477l-452 780h284zM301 1495q0 60 39 99.5t98 39.5q58 0 97.5 -40t39.5 -99q0 -56 -40 -95.5t-97 -39.5q-58 0 -97.5 39.5t-39.5 95.5zM639 1495q0 59 39.5 99t97.5 40t98.5 -40t40.5 -99q0 -55 -41 -95t-98 -40t-97 39.5
t-40 95.5z" />
    <glyph glyph-name="Zacute" unicode="&#x179;" horiz-adv-x="1134" 
d="M1053 231v-231h-971v190l631 838h-621v229h952v-188l-626 -838h635zM715 1370h-250l164 250h276z" />
    <glyph glyph-name="zacute" unicode="&#x17a;" horiz-adv-x="927" 
d="M588 1040h-230l162 291h252zM844 205v-205h-766v164l440 547h-424v204h742v-163l-433 -547h441z" />
    <glyph glyph-name="Zdotaccent" unicode="&#x17b;" horiz-adv-x="1134" 
d="M754 1503q0 -62 -45.5 -103.5t-106.5 -41.5t-106 41.5t-45 103.5q0 63 44.5 104.5t106.5 41.5t107 -41.5t45 -104.5zM1053 231v-231h-971v190l631 838h-621v229h952v-188l-626 -838h635z" />
    <glyph glyph-name="zdotaccent" unicode="&#x17c;" horiz-adv-x="927" 
d="M844 205v-205h-766v164l440 547h-424v204h742v-163l-433 -547h441zM635 1186q0 -63 -45 -104.5t-107 -41.5t-106.5 41.5t-44.5 104.5q0 62 45 103.5t106 41.5t106.5 -41.5t45.5 -103.5z" />
    <glyph glyph-name="Zcaron" unicode="&#x17d;" horiz-adv-x="1134" 
d="M496 1368l-205 260h215l96 -110l96 110h215l-204 -260h-213zM1053 231v-231h-971v190l631 838h-621v229h952v-188l-626 -838h635z" />
    <glyph glyph-name="zcaron" unicode="&#x17e;" horiz-adv-x="927" 
d="M784 1325l-194 -297h-213l-195 297h201l100 -141l101 141h200zM844 205v-205h-766v164l440 547h-424v204h742v-163l-433 -547h441z" />
    <glyph glyph-name="florin" unicode="&#x192;" horiz-adv-x="864" 
d="M123 518v205h170l41 229q28 159 121 242.5t245 83.5q74 0 140 -25v-215q-48 25 -111 25q-118 0 -143 -127l-39 -213h176v-205h-211l-96 -547q-29 -162 -107 -243.5t-231 -81.5q-78 0 -141 24v203q51 -23 110 -23q54 0 79 29.5t36 95.5l94 543h-133z" />
    <glyph glyph-name="Aringacute" unicode="&#x1fa;" horiz-adv-x="1284" 
d="M512 1257h260l481 -1257h-266l-113 303h-471l-110 -303h-262zM840 1460q0 -69 -58.5 -117.5t-142.5 -48.5q-86 0 -144.5 48.5t-58.5 117.5t58.5 117.5t144.5 48.5q84 0 142.5 -48.5t58.5 -117.5zM639 942l-154 -418h308zM774 1663h-248l117 192h277zM719 1460
q0 29 -23 46.5t-57 17.5q-35 0 -58.5 -17.5t-23.5 -46.5q0 -27 24 -45t58 -18t57 18t23 45z" />
    <glyph glyph-name="aringacute" unicode="&#x1fb;" horiz-adv-x="958" 
d="M690 1139q0 -69 -58.5 -117.5t-142.5 -48.5q-86 0 -144 48.5t-58 117.5t58 117.5t144 48.5q84 0 142.5 -48.5t58.5 -117.5zM569 1139q0 27 -23 45t-57 18q-35 0 -58 -17.5t-23 -45.5q0 -29 22.5 -46.5t58.5 -17.5q34 0 57 17.5t23 46.5zM625 1341h-250l119 193h276z
M862 0h-244v49q-25 -25 -88.5 -45t-134.5 -20q-144 0 -242 80t-98 217q0 129 102 210.5t253 81.5q58 0 118.5 -16t89.5 -37v68q0 62 -38 101.5t-111 39.5q-103 0 -135 -86h-242q21 127 126 210t259 83q182 0 283.5 -93.5t101.5 -258.5v-584zM618 250v65q-17 36 -63 58
t-102 22q-66 0 -114 -28.5t-48 -83.5q0 -56 47.5 -84.5t114.5 -28.5q56 0 102 22t63 58z" />
    <glyph glyph-name="AEacute" unicode="&#x1fc;" horiz-adv-x="1800" 
d="M748 1257h970v-229h-557v-274h502v-224h-502v-299h557v-231h-815v303h-426l-172 -303h-274zM903 1049l-299 -525h299v525zM1313 1370h-250l164 250h276z" />
    <glyph glyph-name="aeacute" unicode="&#x1fd;" horiz-adv-x="1497" 
d="M893 1040h-229l161 291h252zM436 174q63 0 108.5 27.5t67.5 77.5v118h-163q-66 0 -112 -27.5t-46 -82.5t42.5 -84t102.5 -29zM1204 295h236q-25 -145 -131.5 -230t-274.5 -85q-194 0 -317 126q-124 -124 -322 -124q-143 0 -241.5 78t-98.5 208q0 135 105.5 213t265.5 78
h186v31q0 62 -38 101.5t-111 39.5q-110 0 -139 -88h-232q21 127 123.5 210t253.5 83q193 0 287 -121q121 121 276 121q194 0 304 -125t110 -330v-82h-608q6 -102 58.5 -158.5t139.5 -56.5q64 0 108.5 28.5t59.5 82.5zM1032 729q-73 0 -122 -44t-66 -128h354q-3 76 -46.5 124
t-119.5 48z" />
    <glyph glyph-name="Oslashacute" unicode="&#x1fe;" horiz-adv-x="1329" 
d="M102 63l107 130q-139 178 -139 436q0 187 75 335t210.5 231t308.5 83q199 0 350 -113l98 119l119 -90l-111 -133q140 -180 140 -432q0 -186 -75.5 -334t-212 -231.5t-308.5 -83.5q-202 0 -347 108l-96 -115zM334 629q0 -139 43 -232l483 582q-81 65 -196 65
q-149 0 -239.5 -115t-90.5 -300zM995 629q0 134 -43 227l-481 -582q80 -61 193 -61q149 0 240 115.5t91 300.5zM776 1370h-250l164 250h277z" />
    <glyph glyph-name="oslashacute" unicode="&#x1ff;" horiz-adv-x="1021" 
d="M70 18l96 119q-103 128 -103 320q0 212 125 345.5t324 133.5q140 0 252 -72l84 103l98 -74l-92 -113q107 -129 107 -323q0 -211 -125 -344t-324 -133q-148 0 -254 71l-88 -108zM614 1040h-229l162 291h252zM713 457q0 60 -21 125l-291 -357q44 -35 111 -35q93 0 147 75
t54 192zM311 457q0 -66 19 -121l291 352q-47 35 -109 35q-93 0 -147 -74t-54 -192z" />
    <glyph glyph-name="Scommaaccent" unicode="&#x218;" horiz-adv-x="1085" 
d="M397 -461l95 127q-45 8 -74 41t-29 82q0 57 42 94t104 37q59 0 100 -38.5t41 -102.5q0 -70 -68 -160l-55 -80h-156zM35 358h270q51 -161 250 -161q97 0 154 41.5t57 115.5q0 57 -36 90t-118 52l-225 51q-319 73 -319 344q0 170 127 278.5t325 108.5q208 0 335 -99.5
t159 -265.5h-260q-23 68 -81 109t-151 41q-90 0 -144 -40.5t-54 -107.5q0 -103 141 -137l229 -53q158 -36 244 -125.5t86 -228.5q0 -179 -131.5 -285t-335.5 -106q-212 0 -351 99.5t-171 278.5z" />
    <glyph glyph-name="scommaaccent" unicode="&#x219;" horiz-adv-x="894" 
d="M313 -461l95 127q-45 8 -74 41t-29 82q0 57 42 94t104 37q59 0 100 -38.5t41 -102.5q0 -70 -68 -160l-55 -80h-156zM51 272h252q15 -49 55.5 -74.5t98.5 -25.5q60 0 94.5 23.5t34.5 66.5q0 30 -22 48t-70 30l-185 41q-113 27 -175 88t-62 170q0 132 104 214.5t260 82.5
q169 0 267 -75t122 -208h-241q-28 90 -144 90q-49 0 -85 -23t-36 -63q0 -27 19.5 -43.5t62.5 -27.5l189 -43q244 -59 244 -267q0 -136 -105.5 -216t-269.5 -80q-169 0 -278.5 77t-129.5 215z" />
    <glyph glyph-name="uni0237" unicode="&#x237;" horiz-adv-x="471" 
d="M365 915v-952q0 -154 -81.5 -237.5t-238.5 -83.5q-67 0 -98 10v203q49 -7 55 -7q56 0 82.5 28t26.5 89v950h254z" />
    <glyph glyph-name="circumflex" unicode="&#x2c6;" horiz-adv-x="1024" 
d="M618 1325l195 -297h-201l-100 141l-100 -141h-201l195 297h212z" />
    <glyph glyph-name="caron" unicode="&#x2c7;" horiz-adv-x="1024" 
d="M813 1325l-195 -297h-212l-195 297h201l100 -141l100 141h201z" />
    <glyph glyph-name="breve" unicode="&#x2d8;" horiz-adv-x="1024" 
d="M512 1008q-125 0 -198.5 75.5t-73.5 214.5h180q0 -118 92 -118t92 118h180q0 -139 -73.5 -214.5t-198.5 -75.5z" />
    <glyph glyph-name="dotaccent" unicode="&#x2d9;" horiz-adv-x="1024" 
d="M664 1186q0 -63 -45 -104.5t-107 -41.5t-107 41.5t-45 104.5q0 62 45.5 103.5t106.5 41.5t106.5 -41.5t45.5 -103.5z" />
    <glyph glyph-name="ring" unicode="&#x2da;" horiz-adv-x="1024" 
d="M715 1196q0 -85 -58.5 -142t-144.5 -57t-144.5 57t-58.5 142t58.5 142t144.5 57t144.5 -57t58.5 -142zM594 1196q0 34 -24 58t-58 24t-57 -24t-23 -58t23 -57t57 -23t58 23t24 57z" />
    <glyph glyph-name="ogonek" unicode="&#x2db;" horiz-adv-x="1024" 
d="M477 12h166q-13 -19 -31.5 -45t-26.5 -37.5t-19.5 -28t-16 -25t-9.5 -19.5t-6.5 -19.5t-1.5 -17.5q0 -19 11.5 -31t31.5 -12q27 0 74 33v-152q-60 -43 -127 -43q-78 0 -123 42t-45 112q0 39 17 80.5t37 70.5t58 78q7 9 11 14z" />
    <glyph glyph-name="tilde" unicode="&#x2dc;" horiz-adv-x="1024" 
d="M659 1317h146q0 -129 -44 -207t-132 -78q-38 0 -76 23.5t-70 47t-57 23.5q-58 0 -61 -86h-146q0 129 44 207t132 78q38 0 76.5 -23.5t70.5 -47t56 -23.5q58 0 61 86z" />
    <glyph glyph-name="hungarumlaut" unicode="&#x2dd;" horiz-adv-x="1024" 
d="M397 1040h-200l137 291h203zM686 1040h-201l138 291h202z" />
    <glyph glyph-name="Wgrave" unicode="&#x1e80;" horiz-adv-x="1626" 
d="M942 1370h-250l-190 250h276zM715 1257h205l217 -845l206 845h259l-328 -1257h-240l-221 829l-221 -829h-240l-327 1257h264l205 -845z" />
    <glyph glyph-name="wgrave" unicode="&#x1e81;" horiz-adv-x="1376" 
d="M788 915l152 -583l164 583h246l-279 -915h-233l-150 561l-149 -561h-234l-278 915h254l163 -583l150 583h194zM813 1040h-231l-183 291h252z" />
    <glyph glyph-name="Wacute" unicode="&#x1e82;" horiz-adv-x="1626" 
d="M936 1370h-250l164 250h276zM715 1257h205l217 -845l206 845h259l-328 -1257h-240l-221 829l-221 -829h-240l-327 1257h264l205 -845z" />
    <glyph glyph-name="wacute" unicode="&#x1e83;" horiz-adv-x="1376" 
d="M791 1040h-230l162 291h252zM788 915l152 -583l164 583h246l-279 -915h-233l-150 561l-149 -561h-234l-278 915h254l163 -583l150 583h194z" />
    <glyph glyph-name="Wdieresis" unicode="&#x1e84;" horiz-adv-x="1626" 
d="M506 1495q0 60 39 99.5t98 39.5q57 0 97 -40t40 -99q0 -56 -40 -95.5t-97 -39.5q-58 0 -97.5 39.5t-39.5 95.5zM844 1495q0 59 40 99t97 40q58 0 98.5 -40t40.5 -99q0 -55 -41 -95t-98 -40t-97 39.5t-40 95.5zM715 1257h205l217 -845l206 845h259l-328 -1257h-240
l-221 829l-221 -829h-240l-327 1257h264l205 -845z" />
    <glyph glyph-name="wdieresis" unicode="&#x1e85;" horiz-adv-x="1376" 
d="M385 1167q0 58 40 98t97 40q56 0 95.5 -40t39.5 -98q0 -55 -39.5 -95t-95.5 -40q-57 0 -97 39.5t-40 95.5zM721 1167q0 58 39.5 98t95.5 40t96.5 -40t40.5 -98q0 -55 -40.5 -95t-96.5 -40t-95.5 40t-39.5 95zM788 915l152 -583l164 583h246l-279 -915h-233l-150 561
l-149 -561h-234l-278 915h254l163 -583l150 583h194z" />
    <glyph glyph-name="Ygrave" unicode="&#x1ef2;" horiz-adv-x="1214" 
d="M612 725l303 532h277l-457 -780v-477h-260v477l-452 780h284zM741 1370h-249l-191 250h277z" />
    <glyph glyph-name="ygrave" unicode="&#x1ef3;" horiz-adv-x="997" 
d="M494 -338h-250l133 334l-350 919h268l211 -608l209 608h256zM629 1040h-232l-182 291h252z" />
    <glyph glyph-name="endash" unicode="&#x2013;" horiz-adv-x="964" 
d="M78 444v185h809v-185h-809z" />
    <glyph glyph-name="emdash" unicode="&#x2014;" horiz-adv-x="1724" 
d="M78 444v185h1569v-185h-1569z" />
    <glyph glyph-name="quoteleft" unicode="&#x2018;" horiz-adv-x="419" 
d="M385 1257l-145 -225q55 -9 90 -48.5t35 -98.5q0 -67 -46 -111.5t-114 -44.5q-69 0 -115.5 46t-46.5 128q0 83 68 184l112 170h162z" />
    <glyph glyph-name="quoteright" unicode="&#x2019;" horiz-adv-x="419" 
d="M35 750l145 225q-55 9 -90 48.5t-35 98.5q0 67 46 111.5t114 44.5q69 0 115.5 -46t46.5 -128q0 -83 -68 -184l-112 -170h-162z" />
    <glyph glyph-name="quotesinglbase" unicode="&#x201a;" horiz-adv-x="419" 
d="M35 -225l145 225q-55 9 -90 48.5t-35 98.5q0 67 46 111.5t114 44.5q69 0 115.5 -46t46.5 -128q0 -83 -68 -184l-112 -170h-162z" />
    <glyph glyph-name="quotedblleft" unicode="&#x201c;" horiz-adv-x="819" 
d="M385 1257l-145 -225q55 -9 90 -48.5t35 -98.5q0 -67 -46 -111.5t-114 -44.5q-69 0 -115.5 46t-46.5 128q0 83 68 184l112 170h162zM784 1257l-145 -225q55 -9 90 -48.5t35 -98.5q0 -67 -46 -111.5t-114 -44.5q-69 0 -115.5 46t-46.5 128q0 83 68 184l113 170h161z" />
    <glyph glyph-name="quotedblright" unicode="&#x201d;" horiz-adv-x="819" 
d="M35 750l145 225q-55 9 -90 48.5t-35 98.5q0 67 46 111.5t114 44.5q69 0 115.5 -46t46.5 -128q0 -83 -68 -184l-112 -170h-162zM434 750l146 225q-55 9 -90 48.5t-35 98.5q0 67 45.5 111.5t113.5 44.5q69 0 115.5 -46t46.5 -128q0 -84 -67 -184l-113 -170h-162z" />
    <glyph glyph-name="quotedblbase" unicode="&#x201e;" horiz-adv-x="819" 
d="M35 -225l145 225q-55 9 -90 48.5t-35 98.5q0 67 46 111.5t114 44.5q69 0 115.5 -46t46.5 -128q0 -83 -68 -184l-112 -170h-162zM434 -225l146 225q-55 9 -90 48.5t-35 98.5q0 67 45.5 111.5t113.5 44.5q69 0 115.5 -46t46.5 -128q0 -84 -67 -184l-113 -170h-162z" />
    <glyph glyph-name="dagger" unicode="&#x2020;" horiz-adv-x="690" 
d="M55 973v170h203v188h174v-188h203v-170h-203v-408h-174v408h-203z" />
    <glyph glyph-name="daggerdbl" unicode="&#x2021;" horiz-adv-x="710" 
d="M63 1022v156h205v153h172v-153h207v-156h-207v-150h207v-153h-207v-154h-172v154h-205v153h205v150h-205z" />
    <glyph glyph-name="bullet" unicode="&#x2022;" horiz-adv-x="745" 
d="M688 537q0 -136 -91 -224t-224 -88q-132 0 -223 88t-91 224q0 137 90.5 225t223.5 88t224 -88t91 -225z" />
    <glyph glyph-name="ellipsis" unicode="&#x2026;" horiz-adv-x="1372" 
d="M55 150q0 69 46 115t114 46t114 -46t46 -115t-46.5 -116.5t-113.5 -47.5t-113.5 47.5t-46.5 116.5zM526 150q0 69 46 115t114 46t114 -46t46 -115t-46.5 -116.5t-113.5 -47.5t-113.5 47.5t-46.5 116.5zM997 150q0 69 46 115t114 46t114 -46t46 -115t-46.5 -116.5
t-113.5 -47.5t-113.5 47.5t-46.5 116.5z" />
    <glyph glyph-name="perthousand" unicode="&#x2030;" horiz-adv-x="2015" 
d="M211 0l778 1257h172l-778 -1257h-172zM55 985q0 122 85 207.5t206 85.5t206 -85.5t85 -207.5q0 -120 -85 -204.5t-206 -84.5t-206 84.5t-85 204.5zM1317 272q0 -122 -85 -207t-206 -85t-206 85t-85 207q0 120 85 204.5t206 84.5t206 -84.5t85 -204.5zM1147 272
q0 50 -35 84.5t-86 34.5t-87 -35t-36 -84q0 -51 36 -86.5t87 -35.5t86 35.5t35 86.5zM1960 272q0 -122 -84 -207t-205 -85q-122 0 -207.5 85.5t-85.5 206.5q0 120 85.5 204.5t207.5 84.5q121 0 205 -84.5t84 -204.5zM1790 272q0 50 -35 84.5t-84 34.5q-51 0 -87 -35t-36 -84
q0 -51 36 -86.5t87 -35.5q50 0 84.5 35.5t34.5 86.5zM225 985q0 -50 35 -84.5t86 -34.5q50 0 85.5 35t35.5 84q0 51 -35.5 87t-85.5 36q-51 0 -86 -36t-35 -87z" />
    <glyph glyph-name="guilsinglleft" unicode="&#x2039;" horiz-adv-x="520" 
d="M469 125h-229l-189 330l189 329h229l-188 -329z" />
    <glyph glyph-name="guilsinglright" unicode="&#x203a;" horiz-adv-x="520" 
d="M281 125h-230l189 330l-189 329h230l188 -329z" />
    <glyph glyph-name="fraction" unicode="&#x2044;" horiz-adv-x="442" 
d="M688 1257l-756 -1257h-178l756 1257h178z" />
    <glyph glyph-name="Euro" unicode="&#x20ac;" horiz-adv-x="1138" 
d="M53 682v158h119q48 201 179.5 319.5t310.5 118.5q175 0 286.5 -99.5t147.5 -277.5h-236q-19 68 -70 108t-128 40q-87 0 -146.5 -55t-89.5 -154h340l-31 -158h-336v-53q0 -42 2 -60h318l-33 -157h-258q30 -96 89 -149.5t145 -53.5q77 0 128 39.5t70 107.5h236
q-36 -178 -147 -277t-287 -99q-178 0 -309.5 116.5t-178.5 315.5h-121v157h99q-2 18 -2 60v53h-97z" />
    <glyph glyph-name="uni2117" unicode="&#x2117;" horiz-adv-x="1441" 
d="M1370 629q0 -184 -88 -334t-236 -232.5t-325 -82.5t-325 82.5t-236 232.5t-88 334t88 334t236 232.5t325 82.5t325 -82.5t236 -232.5t88 -334zM1274 629q0 157 -75 285t-201.5 199t-276.5 71t-276.5 -71t-201.5 -199t-75 -285t75 -285t201.5 -199t276.5 -71t276.5 71
t201.5 199t75 285zM799 481h-142v-227h-196v756h338q125 0 200.5 -70t75.5 -195t-75 -194.5t-201 -69.5zM881 745q0 43 -25 68t-76 25h-123v-185h123q51 0 76 24.5t25 67.5z" />
    <glyph glyph-name="trademark" unicode="&#x2122;" horiz-adv-x="1232" 
d="M41 1126v131h467v-131h-158v-389h-151v389h-158zM915 737h-94l-104 299v-299h-137v520h180l108 -313l111 313h178v-520h-137v299z" />
    <glyph glyph-name="uni2153" unicode="&#x2153;" horiz-adv-x="1468" 
d="M1227 1257l-883 -1257h-184l882 1257h185zM1065 285v137h47q36 0 59 17t23 50q0 28 -19 46t-51 18q-31 0 -52.5 -22t-24.5 -54h-183q11 100 78 166t176 66q117 0 183.5 -58.5t66.5 -156.5q0 -43 -21.5 -83t-52.5 -59q39 -20 60.5 -57.5t21.5 -81.5q0 -101 -68.5 -162
t-187.5 -61q-117 0 -187.5 64t-78.5 171h193q3 -35 24 -56.5t55 -21.5t54 19t20 51q0 33 -22.5 50.5t-59.5 17.5h-53zM428 1257v-698h-184v485l-181 -88v189l236 112h129z" />
    <glyph glyph-name="uni2154" unicode="&#x2154;" horiz-adv-x="1605" 
d="M1364 1257l-883 -1257h-184l883 1257h184zM414 1049q0 28 -17.5 44.5t-46.5 16.5q-28 0 -47.5 -21.5t-19.5 -48.5h-195q11 102 80.5 169t179.5 67q115 0 183.5 -60t68.5 -159q0 -33 -9 -62t-31.5 -58t-39 -47t-51.5 -52l-119 -113h250v-160h-508v125l242 238q44 42 62 68
t18 53zM1202 287v133h47q37 0 60.5 17.5t23.5 51.5q0 29 -19 47.5t-52 18.5q-32 0 -53.5 -23t-24.5 -55h-183q11 100 78 166t176 66q117 0 183.5 -58.5t66.5 -156.5q0 -44 -21 -83.5t-52 -58.5q39 -20 60 -57.5t21 -81.5q0 -101 -68 -162t-188 -61q-117 0 -187.5 64
t-78.5 171h191q3 -36 24.5 -58t57.5 -22q34 0 54.5 19.5t20.5 52.5t-23 51.5t-59 18.5h-55z" />
    <glyph glyph-name="uni215B" unicode="&#x215b;" horiz-adv-x="1490" 
d="M1227 1257l-883 -1257h-184l882 1257h185zM1128 135q36 0 60 21t24 55q0 32 -24 52t-60 20q-37 0 -61.5 -20t-24.5 -52q0 -35 24 -55.5t62 -20.5zM1128 432q32 0 53 19.5t21 50.5t-21 50t-53 19q-34 0 -55.5 -19t-21.5 -50t21.5 -50.5t55.5 -19.5zM1128 -10
q-114 0 -191 55.5t-77 149.5q0 58 31 99.5t80 59.5q-41 22 -64.5 62t-23.5 90q0 96 71 150.5t174 54.5q101 0 172.5 -55t71.5 -150q0 -50 -23.5 -90t-66.5 -62q50 -18 80.5 -59t30.5 -100q0 -94 -75.5 -149.5t-189.5 -55.5zM428 1257v-698h-184v485l-181 -88v189l236 112
h129z" />
    <glyph glyph-name="uni215C" unicode="&#x215c;" horiz-adv-x="1560" 
d="M1196 135q38 0 62 20.5t24 55.5q0 32 -24.5 52t-61.5 20t-60.5 -20t-23.5 -52q0 -35 23.5 -55.5t60.5 -20.5zM1196 432q33 0 54.5 19.5t21.5 50.5q0 30 -21.5 49.5t-54.5 19.5t-54.5 -19.5t-21.5 -49.5q0 -31 21.5 -50.5t54.5 -19.5zM1196 -10q-114 0 -190 55.5
t-76 149.5q0 59 30.5 100t79.5 59q-41 22 -64.5 62t-23.5 90q0 96 71 150.5t173 54.5t174 -55t72 -150q0 -49 -24 -89.5t-66 -62.5q50 -18 80 -59t30 -100q0 -94 -76 -149.5t-190 -55.5zM1294 1257l-880 -1257h-185l883 1257h182zM287 844v135h47q38 0 61 17t23 51
q0 30 -19 48.5t-51 18.5q-34 0 -55.5 -22.5t-24.5 -55.5h-182q11 99 78.5 165.5t177.5 66.5q116 0 183 -59.5t67 -157.5q0 -42 -22 -82.5t-54 -59.5q39 -20 60.5 -57.5t21.5 -81.5q0 -100 -68 -161.5t-186 -61.5q-119 0 -189.5 64t-76.5 173h190q2 -36 23.5 -59t56.5 -23
q34 0 56 20.5t22 53.5t-23 50.5t-61 17.5h-55z" />
    <glyph glyph-name="uni215D" unicode="&#x215d;" horiz-adv-x="1574" 
d="M1210 135q37 0 60.5 20.5t23.5 55.5q0 32 -23.5 52t-60.5 20t-61.5 -20t-24.5 -52q0 -35 24 -55.5t62 -20.5zM1210 432q33 0 54.5 19.5t21.5 50.5q0 30 -21.5 49.5t-54.5 19.5t-54 -19.5t-21 -49.5q0 -31 21.5 -50.5t53.5 -19.5zM1210 -10q-114 0 -190 55.5t-76 149.5
q0 59 30 100t79 59q-41 22 -63.5 62t-22.5 90q0 96 70.5 150.5t172.5 54.5t173 -54.5t71 -150.5q0 -50 -23.5 -90t-64.5 -62q50 -18 80.5 -59t30.5 -100q0 -94 -76.5 -149.5t-190.5 -55.5zM1309 1257l-883 -1257h-182l882 1257h183zM354 872q-40 0 -78 -34h-157v419h440
v-155h-287v-107q44 27 105 27q106 0 169.5 -65t63.5 -169q0 -109 -69 -175t-185 -66q-119 0 -190.5 62t-79.5 169h188q5 -32 27 -52.5t55 -20.5q35 0 56.5 22.5t21.5 58.5q0 38 -21.5 62t-58.5 24z" />
    <glyph glyph-name="uni215E" unicode="&#x215e;" horiz-adv-x="1449" 
d="M1087 135q37 0 60.5 20.5t23.5 55.5q0 32 -23.5 52t-60.5 20t-61.5 -20t-24.5 -52q0 -35 24 -55.5t62 -20.5zM1087 432q32 0 53 19.5t21 50.5t-21 50t-53 19q-33 0 -55 -19.5t-22 -49.5t22 -50t55 -20zM1087 -10q-114 0 -191 55.5t-77 149.5q0 58 31 99.5t80 59.5
q-41 22 -64.5 62t-23.5 90q0 96 71 150.5t174 54.5q102 0 173 -54.5t71 -150.5q0 -50 -23.5 -90t-64.5 -62q49 -18 80 -59.5t31 -99.5q0 -94 -76.5 -149.5t-190.5 -55.5zM1186 1257l-883 -1257h-182l880 1257h185zM573 1128l-219 -569h-192l209 535h-291v163h493v-129z" />
    <glyph glyph-name="minus" unicode="&#x2212;" horiz-adv-x="1146" 
d="M131 514v197h885v-197h-885z" />
    <glyph glyph-name="approxequal" unicode="&#x2248;" horiz-adv-x="1179" 
d="M150 639v184q119 78 237 78q75 0 200.5 -38t200.5 -38q118 0 244 80v-184q-126 -80 -244 -80q-75 0 -200.5 39t-200.5 39q-119 0 -237 -80zM150 326v182q118 80 237 80q75 0 200.5 -39t200.5 -39q122 0 244 80v-184q-123 -78 -244 -78q-75 0 -200.5 37.5t-200.5 37.5
q-119 0 -237 -77z" />
    <glyph glyph-name="notequal" unicode="&#x2260;" horiz-adv-x="1179" 
d="M150 692v178h526l129 193h170l-129 -193h186v-178h-305l-106 -157h411v-177h-528l-129 -192h-168l127 192h-184v177h303l104 157h-407z" />
    <glyph glyph-name="lessequal" unicode="&#x2264;" horiz-adv-x="917" 
d="M123 621v239l674 256v-211l-480 -164l480 -163v-209zM123 123v190h674v-190h-674z" />
    <glyph glyph-name="greaterequal" unicode="&#x2265;" horiz-adv-x="917" 
d="M797 860v-239l-674 -252v209l477 163l-477 164v211zM797 313v-190h-674v190h674z" />
    <glyph glyph-name="fi" unicode="&#xfb01;" horiz-adv-x="1142" 
d="M1032 915v-915h-254v915h254zM1055 1180q0 -63 -44.5 -104.5t-105.5 -41.5q-63 0 -107 41.5t-44 104.5q0 62 44.5 103.5t106.5 41.5q61 0 105.5 -41.5t44.5 -103.5zM647 1325v-215q-38 25 -90 25q-59 0 -92 -32.5t-33 -94.5v-93h191v-204h-191v-711h-250v711h-149v204
h149v109q0 153 88 239.5t236 86.5q83 0 141 -25z" />
    <glyph glyph-name="fl" unicode="&#xfb02;" horiz-adv-x="1142" 
d="M1032 1331v-1331h-254v1331h254zM647 1325v-215q-38 25 -90 25q-59 0 -92 -32.5t-33 -94.5v-93h191v-204h-191v-711h-250v711h-149v204h149v109q0 153 88 239.5t236 86.5q83 0 141 -25z" />
    <glyph glyph-name="i.dot" horiz-adv-x="475" 
d="M365 915v-915h-254v915h254zM389 1186q0 -63 -44.5 -104.5t-106.5 -41.5t-107 41.5t-45 104.5q0 62 45.5 103.5t106.5 41.5t106 -41.5t45 -103.5z" />
    <glyph glyph-name="space_uni0326" horiz-adv-x="1024" 
d="M379 -461l94 127q-44 8 -73 41t-29 82q0 57 41.5 94t103.5 37q59 0 100 -38.5t41 -102.5q0 -71 -67 -160l-55 -80h-156z" />
    <glyph glyph-name="space_uni0326.alt" horiz-adv-x="1024" 
d="M647 1425l-96 -131q46 -9 75 -43t29 -84q0 -58 -42.5 -95.5t-104.5 -37.5t-104 39t-42 105q0 73 68 163l62 84h155z" />
    <glyph glyph-name="space_dotbelowcomb" horiz-adv-x="1024" 
d="M662 -223q0 -62 -44.5 -103t-105.5 -41t-105.5 41t-44.5 103t44.5 102.5t105.5 40.5t105.5 -40.5t44.5 -102.5z" />
    <glyph glyph-name="caron.Slovak" horiz-adv-x="1024" 
d="M557 989h-199l78 342h199z" />
    <glyph glyph-name="cedilla.alt" horiz-adv-x="1024" 
d="M543 -381h-226l144 285h233z" />
    <glyph glyph-name="grave.cap" horiz-adv-x="1024" 
d="M731 1370h-250l-190 250h276z" />
    <glyph glyph-name="acute.cap" horiz-adv-x="1024" 
d="M541 1370h-250l164 250h276z" />
    <glyph glyph-name="circumflex.cap" horiz-adv-x="1024" 
d="M618 1630l205 -260h-215l-96 111l-96 -111h-215l205 260h212z" />
    <glyph glyph-name="caron.cap" horiz-adv-x="1024" 
d="M406 1368l-205 260h215l96 -110l96 110h215l-205 -260h-212z" />
    <glyph glyph-name="tilde.cap" horiz-adv-x="1024" 
d="M672 1642h145q0 -129 -43 -206.5t-131 -77.5q-42 0 -84.5 21.5t-80 43t-66.5 21.5q-57 0 -60 -80h-145q0 129 43 207t131 78q42 0 84.5 -21.5t80 -43t66.5 -21.5q57 0 60 79z" />
    <glyph glyph-name="macron.cap" horiz-adv-x="1024" 
d="M262 1370v186h498v-186h-498z" />
    <glyph glyph-name="breve.cap" horiz-adv-x="1024" 
d="M510 1358q-126 0 -200 71.5t-74 202.5h180q0 -49 25.5 -73.5t68.5 -24.5q96 0 96 98h180q0 -131 -74.5 -202.5t-201.5 -71.5z" />
    <glyph glyph-name="dotaccent.cap" horiz-adv-x="1024" 
d="M664 1503q0 -62 -45.5 -103.5t-106.5 -41.5t-106.5 41.5t-45.5 103.5q0 63 45 104.5t107 41.5t107 -41.5t45 -104.5z" />
    <glyph glyph-name="dieresis.cap" horiz-adv-x="1024" 
d="M205 1495q0 60 39 99.5t98 39.5q58 0 97.5 -40t39.5 -99q0 -56 -40 -95.5t-97 -39.5q-58 0 -97.5 39.5t-39.5 95.5zM543 1495q0 59 39.5 99t97.5 40t98.5 -40t40.5 -99q0 -55 -41 -95t-98 -40t-97 39.5t-40 95.5z" />
    <glyph glyph-name="ring.cap" horiz-adv-x="1024" 
d="M715 1522q0 -85 -58.5 -142t-144.5 -57t-144.5 57t-58.5 142t58.5 141.5t144.5 56.5t144.5 -56.5t58.5 -141.5zM594 1522q0 34 -24 58t-58 24t-57 -24t-23 -58t23 -57t57 -23t58 23t24 57z" />
    <glyph glyph-name="hungarumlaut.cap" horiz-adv-x="1024" 
d="M395 1370h-209l136 250h215zM698 1370h-211l138 250h213z" />
    <glyph glyph-name="exclamdown.cap" horiz-adv-x="444" 
d="M61 1114q0 66 46.5 112t113.5 46q68 0 115 -46t47 -112q0 -67 -47 -113.5t-115 -46.5q-67 0 -113.5 46t-46.5 114zM68 0l61 852h186l62 -852h-309z" />
    <glyph glyph-name="questiondown.cap" horiz-adv-x="933" 
d="M616 1112q0 -69 -46.5 -114.5t-114.5 -45.5t-115 46t-47 114q0 66 47 112t115 46q67 0 114 -46t47 -112zM41 348q0 32 5.5 62t20.5 60t25.5 50.5t36.5 51.5t37 44t42.5 47t39.5 42q74 80 74 145h251q-4 -73 -27.5 -122.5t-86.5 -123.5q-11 -12 -52 -56t-55 -62.5
t-30.5 -54t-16.5 -69.5q0 -68 42.5 -109.5t115.5 -41.5q75 0 118 49t48 125h270q-19 -180 -137.5 -294t-304.5 -114q-192 0 -304 100.5t-112 270.5z" />
    <glyph glyph-name="guilsinglleft.cap" horiz-adv-x="520" 
d="M469 289h-229l-189 329l189 330h229l-188 -330z" />
    <glyph glyph-name="guilsinglright.cap" horiz-adv-x="520" 
d="M281 289h-230l189 329l-189 330h230l188 -330z" />
    <glyph glyph-name="guillemotleft.cap" horiz-adv-x="860" 
d="M457 289h-217l-189 329l189 330h217l-189 -330zM809 289h-217l-189 329l189 330h217l-188 -330z" />
    <glyph glyph-name="guillemotright.cap" horiz-adv-x="860" 
d="M621 289h-218l189 329l-189 330h218l188 -330zM268 289h-217l189 329l-189 330h217l189 -330z" />
    <glyph glyph-name="slash.cap" horiz-adv-x="763" 
d="M10 -131l508 1503h236l-508 -1503h-236z" />
    <glyph glyph-name="backslash.cap" horiz-adv-x="763" 
d="M246 1372l508 -1503h-236l-508 1503h236z" />
    <glyph glyph-name="bar.cap" horiz-adv-x="466" 
d="M121 -131v1503h225v-1503h-225z" />
    <glyph glyph-name="periodcentered.cap" horiz-adv-x="438" 
d="M59 614q0 69 46 115.5t114 46.5t114 -46.5t46 -115.5t-46 -116t-114 -47t-114 47t-46 116z" />
    <glyph glyph-name="bullet.cap" horiz-adv-x="745" 
d="M688 612q0 -135 -91.5 -223t-223.5 -88t-223 88t-91 223q0 138 91 227t223 89q133 0 224 -89t91 -227z" />
    <glyph glyph-name="hyphen.cap" horiz-adv-x="649" 
d="M78 502v223h493v-223h-493z" />
    <glyph glyph-name="endash.cap" horiz-adv-x="964" 
d="M78 520v187h809v-187h-809z" />
    <glyph glyph-name="emdash.cap" horiz-adv-x="1724" 
d="M78 520v187h1569v-187h-1569z" />
    <glyph glyph-name="parenleft.cap" horiz-adv-x="665" 
d="M61 621q0 285 152 486.5t412 264.5v-256q-144 -40 -233 -170t-89 -325t89 -325.5t233 -170.5v-256q-260 63 -412 265t-152 487z" />
    <glyph glyph-name="parenright.cap" horiz-adv-x="665" 
d="M604 621q0 -285 -151.5 -487t-411.5 -265v256q144 40 232.5 170.5t88.5 325.5t-88.5 325t-232.5 170v256q260 -63 411.5 -264.5t151.5 -486.5z" />
    <glyph glyph-name="bracketleft.cap" horiz-adv-x="659" 
d="M358 1153v-1065h260v-219h-497v1503h497v-219h-260z" />
    <glyph glyph-name="bracketright.cap" horiz-adv-x="659" 
d="M301 88v1065h-260v219h498v-1503h-498v219h260z" />
    <glyph glyph-name="braceleft.cap" horiz-adv-x="722" 
d="M436 451v-304q0 -59 60 -59h186v-219h-221q-117 0 -190.5 74t-73.5 192v316q0 59 -60 59h-96v221h96q60 0 60 60v315q0 118 73.5 192t190.5 74h221v-219h-186q-60 0 -60 -59v-303q0 -110 -96 -170q96 -60 96 -170z" />
    <glyph glyph-name="braceright.cap" horiz-adv-x="722" 
d="M287 147v304q0 110 96 170q-96 60 -96 170v303q0 59 -60 59h-186v219h221q117 0 190.5 -74t73.5 -192v-315q0 -60 60 -60h96v-221h-96q-60 0 -60 -59v-316q0 -118 -73.5 -192t-190.5 -74h-221v219h186q60 0 60 59z" />
    <glyph glyph-name="at.cap" horiz-adv-x="1572" 
d="M1176 979l-84 -483q-8 -50 6 -73.5t55 -23.5q95 0 152 94t57 257q0 212 -147.5 335t-380.5 123q-274 0 -445.5 -175t-171.5 -455q0 -124 38.5 -222.5t99.5 -160t144 -102.5t166 -57t171 -16q234 0 458 99v-150q-83 -41 -204.5 -68.5t-253.5 -27.5q-123 0 -236 25.5
t-214 81t-175.5 136.5t-118 199.5t-43.5 262.5q0 160 57.5 303t158.5 248.5t249 167t320 61.5q150 0 279 -46.5t218.5 -127.5t140 -193.5t50.5 -240.5q0 -98 -22.5 -180.5t-61.5 -140.5t-92 -98.5t-113.5 -59.5t-126.5 -19q-73 0 -133.5 28t-95.5 80q-28 -49 -84 -77.5
t-115 -28.5q-126 0 -202.5 88t-76.5 221q0 176 108 305t271 129q58 0 105.5 -21.5t68.5 -53.5l13 57h211zM881 528l37 205q-9 33 -41.5 54.5t-75.5 21.5q-77 0 -127.5 -68t-50.5 -161q0 -61 30.5 -98.5t87.5 -37.5q86 0 140 84z" />
    <glyph glyph-name="Euro.lt" 
d="M51 682v158h109q44 200 168.5 319t292.5 119q165 0 270.5 -100t138.5 -277h-231q-15 68 -61.5 108t-116.5 40q-76 0 -130 -55.5t-81 -153.5h309l-29 -158h-305v-53v-60h289l-29 -157h-233q27 -96 80.5 -150.5t128.5 -54.5q70 0 116.5 40t61.5 109h231
q-33 -177 -138.5 -276.5t-270.5 -99.5q-167 0 -291 117t-170 315h-109v157h86v60v53h-86z" />
    <glyph glyph-name="dollar.lt" 
d="M444 -182v198q-152 25 -249 116t-123 237h254q51 -152 233 -152q89 0 140 38.5t51 106.5q0 57 -35 89t-115 51l-201 49q-299 70 -299 334q0 144 94 241t250 117v187h218v-195q132 -30 213 -115.5t108 -214.5h-244q-22 62 -76.5 99.5t-140.5 37.5q-81 0 -129.5 -38
t-48.5 -101q0 -51 32.5 -82t98.5 -49l213 -51q146 -36 226.5 -122.5t80.5 -221.5q0 -146 -91 -241t-242 -120v-198h-218z" />
    <glyph glyph-name="cent.lt" 
d="M113 477q0 183 92 308t246 159v186h217v-186q123 -29 196.5 -116.5t87.5 -213.5h-247q-6 58 -47 91.5t-105 33.5q-87 0 -137.5 -72t-50.5 -190q0 -117 50.5 -188.5t137.5 -71.5q63 0 104.5 33t47.5 90h247q-14 -127 -87.5 -214t-196.5 -114v-190h-217v188
q-154 34 -246 160t-92 307z" />
    <glyph glyph-name="sterling.lt" 
d="M465 868v-149h264v-199h-264v-123q0 -129 -43 -186h565v-211h-911v211h104q41 71 41 186v123h-145v199h145v145q0 178 107.5 296t285.5 118q163 0 262 -93t113 -247h-233q-8 59 -43.5 92t-94.5 33q-75 0 -114 -53.5t-39 -141.5z" />
    <glyph glyph-name="yen.lt" 
d="M96 524v172h217l-284 561h274l236 -485l231 485h266l-288 -561h217v-172h-306v-114h306v-172h-306v-238h-258v238h-305v172h305v114h-305z" />
    <glyph glyph-name="florin.lt" 
d="M266 518v205h170l41 229q29 159 123 242.5t244 83.5q73 0 139 -25v-215q-48 25 -111 25q-57 0 -94 -33t-49 -94l-39 -213h176v-205h-211l-96 -547q-28 -162 -106.5 -243.5t-231.5 -81.5q-78 0 -141 24v203q51 -23 110 -23q54 0 79 29.5t36 95.5l94 543h-133z" />
    <glyph glyph-name="zero.lt" 
d="M532 -20q-219 0 -350 179.5t-131 469.5t131 469.5t350 179.5t350.5 -179.5t131.5 -469.5t-131.5 -469.5t-350.5 -179.5zM532 1044q-79 0 -131 -56.5t-74 -146.5t-22 -212q0 -90 12.5 -163.5t39 -131t71 -89.5t104.5 -32q115 0 170.5 114.5t55.5 301.5t-55.5 301
t-170.5 114z" />
    <glyph glyph-name="one.lt" 
d="M147 0v227h322v731l-317 -159v258l405 200h166v-1030h283v-227h-859z" />
    <glyph glyph-name="two.lt" 
d="M684 893q0 67 -44 109t-118 42q-75 0 -119 -48.5t-49 -125.5h-270q19 179 137.5 293.5t300.5 114.5q195 0 308.5 -102t113.5 -273q0 -57 -18.5 -110.5t-59.5 -109.5t-75.5 -94.5t-96.5 -101.5l-243 -260h507v-227h-870v170l397 420q11 12 35.5 39t35 38.5t30 34.5
t28.5 34.5t23 31t20.5 33t14 30t10 32t2.5 30.5z" />
    <glyph glyph-name="three.lt" 
d="M446 539v202h78q83 0 135 41.5t52 116.5q0 68 -47 113t-125 45q-83 0 -131 -49t-54 -125h-254q21 173 140.5 284t306.5 111q190 0 300.5 -101.5t110.5 -265.5q0 -90 -42.5 -164.5t-110.5 -107.5q86 -37 131 -112t45 -167q0 -166 -117.5 -273t-316.5 -107
q-209 0 -332.5 110t-138.5 299h262q8 -85 59.5 -135.5t143.5 -50.5q82 0 135 46.5t53 119.5q0 78 -56 124t-145 46h-82z" />
    <glyph glyph-name="four.lt" 
d="M729 1257l-410 -792h277v260h238v-260h188v-215h-188v-250h-234v250h-559v188l434 819h254z" />
    <glyph glyph-name="five.lt" 
d="M543 614q-57 0 -109.5 -24t-83.5 -60h-209v727h756v-227h-543v-256q32 22 91.5 39.5t121.5 17.5q187 0 301.5 -116.5t114.5 -304.5q0 -193 -120.5 -311.5t-319.5 -118.5q-203 0 -328.5 111t-140.5 298h260q9 -83 65.5 -133.5t145.5 -50.5q87 0 140.5 57t53.5 148
t-53 147.5t-143 56.5z" />
    <glyph glyph-name="six.lt" 
d="M344 406q0 -94 58.5 -152.5t152.5 -58.5q91 0 148 58.5t57 152.5q0 98 -57 157.5t-148 59.5q-94 0 -152.5 -59.5t-58.5 -157.5zM987 940h-254q-40 123 -166 123q-72 0 -129 -51.5t-86 -131t-30 -169.5v-19q33 60 103.5 96.5t162.5 36.5q185 0 297 -119.5t112 -293.5
q0 -185 -120.5 -308.5t-323.5 -123.5q-122 0 -222 57t-161 170q-88 160 -88 395q0 196 57.5 348.5t168 240t257.5 87.5q175 0 280.5 -88t141.5 -250z" />
    <glyph glyph-name="seven.lt" 
d="M977 1071l-428 -1071h-262l418 1028h-619v229h891v-186z" />
    <glyph glyph-name="eight.lt" 
d="M535 186q90 0 148 48.5t58 130.5q0 83 -58 130.5t-148 47.5q-88 0 -145.5 -48t-57.5 -130q0 -81 58 -130t145 -49zM535 756q74 0 126 43t52 114q0 74 -52 118t-126 44q-72 0 -123.5 -44t-51.5 -118q0 -71 51.5 -114t123.5 -43zM535 -20q-195 0 -324 98.5t-129 265.5
q0 115 62.5 195t156.5 106q-81 35 -130.5 108.5t-49.5 170.5q0 110 58.5 192t151 122t204.5 40q114 0 207 -40t151.5 -121.5t58.5 -192.5q0 -96 -50.5 -170t-131.5 -109q95 -26 158 -106t63 -195q0 -167 -130 -265.5t-326 -98.5z" />
    <glyph glyph-name="nine.lt" 
d="M721 852q0 94 -58.5 152.5t-152.5 58.5q-91 0 -148 -58.5t-57 -152.5q0 -98 57 -157.5t148 -59.5q94 0 152.5 59.5t58.5 157.5zM78 317h254q40 -122 166 -122q72 0 129 51.5t86 131t30 169.5v18q-33 -60 -103.5 -96.5t-162.5 -36.5q-185 0 -297 119.5t-112 294.5
q0 185 120.5 308.5t323.5 123.5q122 0 222 -57t161 -170q88 -160 88 -396q0 -196 -57.5 -348t-167.5 -239.5t-258 -87.5q-175 0 -280.5 87.5t-141.5 249.5z" />
    <glyph glyph-name="period.tab" horiz-adv-x="532" 
d="M104 150q0 69 47 115t115 46t114 -46t46 -115t-46.5 -116.5t-113.5 -47.5q-68 0 -115 47.5t-47 116.5z" />
    <glyph glyph-name="comma.tab" horiz-adv-x="532" 
d="M80 -223l149 229q-54 10 -89.5 49t-35.5 99q0 67 47 111t115 44q69 0 114.5 -46t45.5 -128q0 -88 -68 -184l-114 -174h-164z" />
    <glyph glyph-name="colon.tab" horiz-adv-x="532" 
d="M106 150q0 69 46 115t114 46t114 -46t46 -115t-46.5 -116.5t-113.5 -47.5t-113.5 47.5t-46.5 116.5zM106 733q0 69 46 115.5t114 46.5t114 -46.5t46 -115.5t-46.5 -116.5t-113.5 -47.5t-113.5 47.5t-46.5 116.5z" />
    <glyph glyph-name="semicolon.tab" horiz-adv-x="532" 
d="M80 -223l149 229q-54 9 -88.5 48t-34.5 100q0 67 46 111t114 44q69 0 114.5 -46t45.5 -128q0 -86 -66 -184l-116 -174h-164zM106 733q0 69 46 115.5t114 46.5t114 -46.5t46 -115.5t-46.5 -116.5t-113.5 -47.5t-113.5 47.5t-46.5 116.5z" />
    <glyph glyph-name="space.tab" horiz-adv-x="532" 
 />
    <glyph glyph-name="percent.lt" 
d="M41 1026q0 104 72.5 178t175.5 74q105 0 178.5 -73.5t73.5 -178.5q0 -103 -73.5 -175.5t-178.5 -72.5q-103 0 -175.5 72.5t-72.5 175.5zM186 1026q0 -43 30 -72.5t73 -29.5q44 0 75 29.5t31 72.5q0 44 -31 75.5t-75 31.5q-43 0 -73 -31.5t-30 -75.5zM1024 231
q0 -104 -72.5 -177.5t-175.5 -73.5q-106 0 -179 73t-73 178q0 103 73.5 175.5t178.5 72.5q103 0 175.5 -72.5t72.5 -175.5zM879 231q0 43 -30 73t-73 30q-44 0 -75 -30t-31 -73q0 -44 31 -75t75 -31q43 0 73 31t30 75zM63 0l768 1257h170l-768 -1257h-170z" />
    <glyph glyph-name="perthousand.lt" horiz-adv-x="1638" 
d="M72 0l788 1257h170l-788 -1257h-170zM205 1026q0 -43 30 -72.5t74 -29.5q43 0 74 30t31 72q0 44 -31 75.5t-74 31.5q-44 0 -74 -31t-30 -76zM1044 231q0 -104 -73 -177.5t-176 -73.5q-104 0 -178 73.5t-74 177.5q0 103 74 175.5t178 72.5q103 0 176 -72.5t73 -175.5z
M897 231q0 43 -29.5 73t-72.5 30q-44 0 -75.5 -30t-31.5 -73q0 -44 31.5 -75t75.5 -31q43 0 72.5 31t29.5 75zM59 1026q0 104 73 178t177 74t177 -74t73 -178q0 -103 -73 -175.5t-177 -72.5t-177 72.5t-73 175.5zM1589 231q0 -104 -73.5 -177.5t-176.5 -73.5
q-104 0 -178 73.5t-74 177.5q0 103 74 175.5t178 72.5q103 0 176.5 -72.5t73.5 -175.5zM1444 231q0 43 -31 73t-74 30t-74.5 -30.5t-31.5 -72.5q0 -44 31.5 -75t74.5 -31t74 31t31 75z" />
    <glyph glyph-name="plus.lt" 
d="M434 1055h197v-344h344v-197h-344v-342h-197v342h-344v197h344v344z" />
    <glyph glyph-name="minus.lt" 
d="M90 514v197h885v-197h-885z" />
    <glyph glyph-name="multiply.lt" 
d="M397 610l-250 246l138 135l245 -248l248 248l137 -135l-247 -246l247 -248l-137 -137l-248 248l-245 -248l-138 137z" />
    <glyph glyph-name="divide.lt" 
d="M90 514v197h885v-197h-885zM387 967q0 60 42.5 102.5t102.5 42.5t103 -42.5t43 -102.5t-43 -102t-103 -42t-102.5 42t-42.5 102zM387 258q0 60 42.5 101.5t102.5 41.5t103 -41.5t43 -101.5t-43 -102.5t-103 -42.5t-102.5 42.5t-42.5 102.5z" />
    <glyph glyph-name="equal.lt" 
d="M90 358v179h883v-179h-883zM90 692v180h883v-180h-883z" />
    <glyph glyph-name="less.lt" 
d="M197 483v252l671 312v-222l-491 -217l491 -215v-223z" />
    <glyph glyph-name="greater.lt" 
d="M868 735v-252l-673 -313v223l491 215l-491 217v222z" />
    <glyph glyph-name="plusminus.lt" 
d="M438 1122h187v-266h336v-184h-336v-266h-187v266h-336v184h336v266zM102 127v186h859v-186h-859z" />
    <glyph glyph-name="lessequal.lt" 
d="M195 621v239l673 256v-211l-479 -164l479 -163v-209zM195 123v190h673v-190h-673z" />
    <glyph glyph-name="greaterequal.lt" 
d="M868 860v-239l-673 -252v209l479 163l-479 164v211zM868 313v-190h-673v190h673z" />
    <glyph glyph-name="notequal.lt" 
d="M90 692v178h526l129 193h170l-129 -193h187v-178h-305l-107 -157h412v-177h-529l-129 -192h-168l127 192h-184v177h303l105 157h-408z" />
    <glyph glyph-name="approxequal.lt" 
d="M90 639v184q122 78 238 78q75 0 200.5 -38t200.5 -38q118 0 244 80v-184q-126 -80 -244 -80q-75 0 -200.5 39t-200.5 39q-117 0 -238 -80zM90 326v182q121 80 238 80q75 0 200.5 -39t200.5 -39q122 0 244 80v-184q-123 -78 -244 -78q-75 0 -200.5 37.5t-200.5 37.5
q-118 0 -238 -77z" />
    </font>
</defs>
</svg>
